Достань меня, если сможешь / Reach Me (Джон Херцфелд / John Herzfeld) [2014, США, Драма, WEB-DLRip] VO (PashaUp)

Ответить на тему
 
Автор Сообщение

user ®

Стаж: 7 лет 7 месяцев

Сообщений: 20008

Пост Пост: #1 от 02-Дек-2014 11:40

[Цитировать]

Достань меня, если сможешь / Reach Me
Страна: США
Жанр: Драма
Год выпуска: 2014
Продолжительность: 01:32:13
Перевод: Одноголосый закадровый PashaUp
Cубтитры: нет
Режиссер: Джон Херцфелд / John Herzfeld
В ролях: Лорен Кохэн, Том Беренджер, Сильвестр Сталлоне, Дэнни Айелл, Дэнни Трехо, Кира Седжвик, Томас Джейн, Кевин Коннолли, Том Сайзмор, Нелли, Омари Хардвик, Дэвид О’Хара, Келси Грэммер, Терри Крюс
Описание: Драма развивается вокруг группы людей, каждый из которых как-то связан с книгой по самосовершенствованию, а ее автором является ведущий затворнический образ жизни бывший тренер футбольной команды.
Сэмпл: http://sendfile.su/1055583
Качество видео: WEB-DLRip
Формат видео: AVI
Видео: 720x304 (2.37:1), 23.976 fps, XviD build 64 ~1789 kbps avg, 0.34 bit/pixel
Аудио: 48 kHz, AC3 Dolby Digital, 3/2 (L,C,R,l,r) + LFE ch, ~448 kbps
MediaInfo
General
Complete name : E:\Films\New\Dostanb.menya.2014.avi
Format : AVI
Format/Info : Audio Video Interleave
File size : 1.45 GiB
Duration : 1h 32mn
Overall bit rate : 2 247 Kbps
Video
ID : 0
Format : MPEG-4 Visual
Format profile : Advanced Simple@L5
Format settings, BVOP : 2
Format settings, QPel : No
Format settings, GMC : No warppoints
Format settings, Matrix : Default (H.263)
Codec ID : XVID
Codec ID/Hint : XviD
Duration : 1h 32mn
Bit rate : 1 789 Kbps
Width : 720 pixels
Height : 304 pixels
Display aspect ratio : 2.35:1
Frame rate : 23.976 fps
Color space : YUV
Chroma subsampling : 4:2:0
Bit depth : 8 bits
Scan type : Progressive
Compression mode : Lossy
Bits/(Pixel*Frame) : 0.341
Stream size : 1.15 GiB (80%)
Writing library : XviD 64
Audio
ID : 1
Format : AC-3
Format/Info : Audio Coding 3
Mode extension : CM (complete main)
Format settings, Endianness : Big
Codec ID : 2000
Duration : 1h 32mn
Bit rate mode : Constant
Bit rate : 448 Kbps
Channel(s) : 6 channels
Channel positions : Front: L C R, Side: L R, LFE
Sampling rate : 48.0 KHz
Bit depth : 16 bits
Compression mode : Lossy
Stream size : 296 MiB (20%)
Alignment : Split accross interleaves
Interleave, duration : 42 ms (1.00 video frame)
Interleave, preload duration : 500 ms
Скриншоты
Скачать

Скачать торрент!

Как скачивать? · Что такое торрент? · Рейтинг и ограничения

Сайт не распространяет и не хранит электронные версии произведений, а лишь предоставляет доступ к создаваемому пользователями каталогу ссылок на торрент-файлы, которые содержат только списки хеш-сумм

[Профиль] [ЛС]
Показать сообщения:    
Ответить на тему

Текущее время: Сегодня 04:03

Часовой пояс: GMT + 4



Вы не можете начинать темы
Вы не можете отвечать на сообщения
Вы не можете редактировать свои сообщения
Вы не можете удалять свои сообщения
Вы не можете голосовать в опросах
Вы не можете прикреплять файлы к сообщениям
Вы не можете скачивать файлы