Стылые земли / Холодные земли / The Cold Lands (Том Гилрой / Tom Gilroy) [2013, США, драма, WEB-DL 720p] VO + Sub (Rus, Eng) + Original Eng

Ответить на тему
 
Автор Сообщение

user ®

Стаж: 7 лет 7 месяцев

Сообщений: 20008

Пост Пост: #1 от 02-Дек-2014 05:20

[Цитировать]

Стылые земли / Холодные земли / The Cold Lands- Страна: США
Студия: Cinereach, Journeyman Pictures
Жанр: драма
Год выпуска: 2013
Продолжительность: 01:40:30
Перевод: Одноголосый закадровый (viktor_2838)
Оригинальная аудиодорожка: английский
Русские субтитры: есть (Алексей Крылов)
Другие субтитры: английские, английские (для слабослышащих)-Режиссер: Том Гилрой / Tom Gilroy
Сценарий: Том Гилрой / Tom Gilroy
Композитор: Хан Роу / Hahn Rowe
Оператор: Уайатт Гарфилд / Wyatt Garfield
В ролях: Лили Тейлор / Lili Taylor, Сайлас Йелич / Silas Yelich, Питер Сканавино / Peter Scanavino, Мэгги Лоу / Maggie Low, Эндрю ван Дьюсен / Andrew Van Dusen, Питер Руфа / Peter Rufa, Ник Сэндоу / Nick Sandow, Джонатан Гэтт / Jonathan Gatt, Трейс Хендерсон / Trace Henderson-Описание: Аттикус вместе с матерью переезжает жить в сельскую местность. Мать скрывает от сына болезнь, и когда она неожиданно умирает, Аттикус, понимая свою беспомощность в этом мире, бежит в леса. Судьба сводит его с Картером, безалаберным и бездомным хиппи, но таким же одиноким, как и сам Аттикус...- -Тип релиза: WEB-DL 720p Источник видеоряда - iTunesКонтейнер: MKV
Видео: H264, High@L3.1, 1280x688 (1.85:1), 23.976 fps, 0.188 bpp, 3 968 Kbps
Аудио 1: AC3, 48 kHz, 2 (L,R), 192 kbps | Russian VO
Аудио 2: AC3, 48 kHz, 3/2 (L,C,R,l,r) + LFE ch, 384 kbps | English
Субтитры: русские, английские, английские (для слабослышащих)
Формат субтитров: softsub (SRT)-

MediaInfo
Сomplete name                  : The.Cold.Lands.2013.WEB-DL.720p.H264.mkv
Format                         : Matroska
Format version                 : Version 2
File size                      : 3.25 GiB
Duration                       : 1h 40mn
Overall bit rate               : 4 636 Kbps
Movie name                     : The Cold Lands (2013)
Encoded date                   : UTC 2014-11-30 01:18:46
Writing application            : mkvmerge v4.9.1 ('Ich will') сборка от Jul 11 2011 23:53:15
Writing library                : libebml v1.2.1 + libmatroska v1.1.1
Video
ID                             : 1
Format                         : AVC
Format/Info                    : Advanced Video Codec
Format profile                 : High@L3.1
Format settings, CABAC         : No
Format settings, ReFrames      : 2 frames
Codec ID                       : V_MPEG4/ISO/AVC
Duration                       : 1h 40mn
Bit rate                       : 3 968 Kbps
Width                          : 1 280 pixels
Height                         : 688 pixels
Display aspect ratio           : 1.85:1
Frame rate mode                : Constant
Frame rate                     : 23.976 fps
Color space                    : YUV
Chroma subsampling             : 4:2:0
Bit depth                      : 8 bits
Scan type                      : Progressive
Bits/(Pixel*Frame)             : 0.188
Stream size                    : 2.79 GiB (86%)
Title                          : The.Cold.Lands.2013.720p.WEB-DL
Language                       : English
Default                        : Yes
Forced                         : No
Color primaries                : BT.709
Transfer characteristics       : BT.709
Matrix coefficients            : BT.709
Audio #1
ID                             : 2
Format                         : AC-3
Format/Info                    : Audio Coding 3
Mode extension                 : CM (complete main)
Format settings, Endianness    : Big
Codec ID                       : A_AC3
Duration                       : 1h 40mn
Bit rate mode                  : Constant
Bit rate                       : 192 Kbps
Channel(s)                     : 2 channels
Channel positions              : Front: L R
Sampling rate                  : 48.0 KHz
Bit depth                      : 16 bits
Compression mode               : Lossy
Stream size                    : 138 MiB (4%)
Title                          : Russain VO
Language                       : Russian
Default                        : Yes
Forced                         : No
Audio #2
ID                             : 3
Format                         : AC-3
Format/Info                    : Audio Coding 3
Mode extension                 : CM (complete main)
Format settings, Endianness    : Big
Codec ID                       : A_AC3
Duration                       : 1h 40mn
Bit rate mode                  : Constant
Bit rate                       : 384 Kbps
Channel(s)                     : 6 channels
Channel positions              : Front: L C R, Side: L R, LFE
Sampling rate                  : 48.0 KHz
Bit depth                      : 16 bits
Compression mode               : Lossy
Stream size                    : 276 MiB (8%)
Title                          : English
Language                       : English
Default                        : No
Forced                         : No
Text #1
ID                             : 4
Format                         : UTF-8
Codec ID                       : S_TEXT/UTF8
Codec ID/Info                  : UTF-8 Plain Text
Title                          : Russian
Language                       : Russian
Default                        : No
Forced                         : No
Text #2
ID                             : 5
Format                         : UTF-8
Codec ID                       : S_TEXT/UTF8
Codec ID/Info                  : UTF-8 Plain Text
Title                          : English
Language                       : English
Default                        : No
Forced                         : No
Text #3
ID                             : 6
Format                         : UTF-8
Codec ID                       : S_TEXT/UTF8
Codec ID/Info                  : UTF-8 Plain Text
Title                          : English for the Hearing Impaired
Language                       : English
Default                        : No
Forced                         : No
Menu
00:00:00.000                   : en:Chapter 1
00:10:00.000                   : en:Chapter 2
00:20:00.000                   : en:Chapter 3
00:30:00.000                   : en:Chapter 4
00:40:00.000                   : en:Chapter 5
00:50:00.000                   : en:Chapter 6
01:00:00.000                   : en:Chapter 7
01:10:00.000                   : en:Chapter 8
01:20:00.000                   : en:Chapter 9
01:30:00.000                   : en:Chapter 10
Скриншоты
Скачать

Скачать торрент!

Как скачивать? · Что такое торрент? · Рейтинг и ограничения

Сайт не распространяет и не хранит электронные версии произведений, а лишь предоставляет доступ к создаваемому пользователями каталогу ссылок на торрент-файлы, которые содержат только списки хеш-сумм

[Профиль] [ЛС]
Показать сообщения:    
Ответить на тему

Текущее время: Сегодня 01:48

Часовой пояс: GMT + 4



Вы не можете начинать темы
Вы не можете отвечать на сообщения
Вы не можете редактировать свои сообщения
Вы не можете удалять свои сообщения
Вы не можете голосовать в опросах
Вы не можете прикреплять файлы к сообщениям
Вы не можете скачивать файлы