Хоббит: Пустошь Смауга / The Hobbit: The Desolation of Smaug (Питер Джексон / Peter Jackson) [2013, США, Новая Зеландия, фэнтези, приключения, BDRip 1080p] [Extended Edition] Dub + Sub Rus, Ukr, Eng + Original Eng

Ответить на тему
 
Автор Сообщение

user ®

Стаж: 7 лет 7 месяцев

Сообщений: 20008

Пост Пост: #1 от 02-Дек-2014 05:20

[Цитировать]

Хоббит: Пустошь Смауга / The Hobbit: The Desolation of Smaug /Extended Edition Страна: США, Новая Зеландия
Студия: Metro-Goldwyn-Mayer (MGM), New Line Cinema, WingNut Films
Жанр: фэнтези, приключения
Год выпуска: 2013
Продолжительность: 03:06:35
Перевод: Профессиональный (дублированный) Blu-ray CEE
Cубтитры: русские (forced, full), украинские, английские (Full, SDH, SDH Colored)
Оригинальная аудиодорожка: английский
Режиссер: Питер Джексон / Peter Jackson
В ролях: Иэн МакКеллен, Ричард Армитедж, Джеймс Несбитт, Кен Стотт, Грэм МакТавиш, Уильям Кирчер, Стивен Хантер, Дин О’Горман, Эйдан Тернер
Описание: Продолжение путешествия хоббита Бильбо Бэггинса, волшебника Гэндальфа и 13 отважных гномов. Их компания обязана завершить своё путешествие к Одинокой горе. Там они должны встретиться с величайшей опасностью из всех — созданием куда более ужасающим, чем все их прошлые противники, которое проверит на прочность не только их мужество, но крепость их дружбы и правильность выбранного пути, — драконом Смаугом.

Тип релиза: BDRip 1080p [CRiSC]
Контейнер: MKV
Видео: AVC, 1920x800, 12600 kbps, 23.976 fps
Аудио 1: Russian: 48 kHz, AC3, 3/2 (L,C,R,l,r) + LFE ch, 448.00 kbps |Blu-ray CEE|
Аудио 2: English: 48 kHz, DTS, 3/2 (L,C,R,l,r) + LFE ch, ~1536.00 kbps avg |Original|
Чаптеры: есть

MediaInfo
General
Unique ID : 185510508349368301940232209715379985354 (0x8B900638B63E06E381DFFCC59BEE5BCA)
Complete name : D:\The.Hobbit The.Desolation.of.Smaug.2013.Extended Edition.1080p.BluRay.DTS.x264-Talian-.mkv
Format : Matroska
Format version : Version 2
File size : 19.3 GiB
Duration : 3h 6mn
Overall bit rate : 14.8 Mbps
Movie name : The Hobbit: The Desolation of Smaug-Talian-
Encoded date : UTC 2014-11-30 15:06:36
Writing application : mkvmerge v5.7.0 ('The Whirlwind') built on Jul 8 2012 20:08:51
Writing library : libebml v1.2.3 + libmatroska v1.3.0
Video
ID : 1
Format : AVC
Format/Info : Advanced Video Codec
Format profile : High@L4.1
Format settings, CABAC : Yes
Format settings, ReFrames : 5 frames
Codec ID : V_MPEG4/ISO/AVC
Duration : 3h 6mn
Bit rate : 12.6 Mbps
Width : 1 920 pixels
Height : 800 pixels
Display aspect ratio : 2.40:1
Frame rate : 23.976 fps
Color space : YUV
Chroma subsampling : 4:2:0
Bit depth : 8 bits
Scan type : Progressive
Bits/(Pixel*Frame) : 0.341
Stream size : 16.4 GiB (85%)
Title : CRiSC
Writing library : x264 core 142 r2479kMod dd79a61
Encoding settings : cabac=1 / ref=5 / deblock=1:-3:-3 / analyse=0x3:0x133 / me=umh / subme=11 / psy=1 / fade_compensate=0.00 / psy_rd=1.05:0.00 / mixed_ref=1 / me_range=64 / chroma_me=1 / trellis=2 / 8x8dct=1 / cqm=0 / deadzone=21,11 / fast_pskip=0 / chroma_qp_offset=-2 / threads=12 / lookahead_threads=2 / sliced_threads=0 / nr=0 / decimate=0 / interlaced=0 / bluray_compat=0 / constrained_intra=0 / fgo=0 / bframes=7 / b_pyramid=2 / b_adapt=2 / b_bias=0 / direct=3 / weightb=1 / open_gop=0 / weightp=2 / keyint=250 / keyint_min=23 / scenecut=40 / intra_refresh=0 / rc_lookahead=40 / rc=crf / mbtree=0 / crf=16.4000 / qcomp=0.75 / qpmin=0 / qpmax=69 / qpstep=4 / vbv_maxrate=50000 / vbv_bufsize=62500 / crf_max=0.0 / nal_hrd=none / filler=0 / ip_ratio=1.20 / pb_ratio=1.10 / aq=3:0.60
Language : English
Default : Yes
Forced : No
Color primaries : BT.709-5, BT.1361, IEC 61966-2-4, SMPTE RP177
Transfer characteristics : BT.709-5, BT.1361
Matrix coefficients : BT.709-5, BT.1361, IEC 61966-2-4 709, SMPTE RP177
Audio #1
ID : 2
Format : AC-3
Format/Info : Audio Coding 3
Mode extension : CM (complete main)
Format settings, Endianness : Big
Codec ID : A_AC3
Duration : 3h 6mn
Bit rate mode : Constant
Bit rate : 448 Kbps
Channel(s) : 6 channels
Channel positions : Front: L C R, Side: L R, LFE
Sampling rate : 48.0 KHz
Bit depth : 16 bits
Compression mode : Lossy
Stream size : 598 MiB (3%)
Title : DUB-BD CEE
Language : Russian
Default : Yes
Forced : No
Audio #2
ID : 3
Format : DTS
Format/Info : Digital Theater Systems
Codec ID : A_DTS
Duration : 3h 6mn
Bit rate mode : Constant
Bit rate : 1 510 Kbps
Channel(s) : 6 channels
Channel positions : Front: L C R, Side: L R, LFE
Sampling rate : 48.0 KHz
Bit depth : 24 bits
Compression mode : Lossy
Stream size : 1.97 GiB (10%)
Title : Original
Language : English
Default : No
Forced : No
Text #1
ID : 4
Format : UTF-8
Codec ID : S_TEXT/UTF8
Codec ID/Info : UTF-8 Plain Text
Title : Sub-forced
Language : Russian
Default : Yes
Forced : No
Text #2
ID : 5
Format : UTF-8
Codec ID : S_TEXT/UTF8
Codec ID/Info : UTF-8 Plain Text
Title : Sub-full
Language : Russian
Default : No
Forced : No
Text #3
ID : 6
Format : UTF-8
Codec ID : S_TEXT/UTF8
Codec ID/Info : UTF-8 Plain Text
Title : Sub-full
Language : Ukrainian
Default : No
Forced : No
Text #4
ID : 7
Format : UTF-8
Codec ID : S_TEXT/UTF8
Codec ID/Info : UTF-8 Plain Text
Title : Sub-full
Language : English
Default : No
Forced : No
Text #5
ID : 8
Format : UTF-8
Codec ID : S_TEXT/UTF8
Codec ID/Info : UTF-8 Plain Text
Title : Sub-SDH
Language : English
Default : No
Forced : No
Text #6
ID : 9
Format : UTF-8
Codec ID : S_TEXT/UTF8
Codec ID/Info : UTF-8 Plain Text
Title : Sub-SDH-Colored
Language : English
Default : No
Forced : No
Menu
00:00:00.000 : en:00:00:00.000
00:07:33.411 : en:00:07:33.411
00:12:00.303 : en:00:12:00.303
00:12:59.445 : en:00:12:59.445
00:15:55.371 : en:00:15:55.371
00:20:56.922 : en:00:20:56.922
00:23:15.436 : en:00:23:15.436
00:25:52.676 : en:00:25:52.676
00:29:59.256 : en:00:29:59.256
00:38:14.042 : en:00:38:14.042
00:46:43.843 : en:00:46:43.843
00:49:46.317 : en:00:49:46.317
00:53:19.530 : en:00:53:19.530
00:55:10.224 : en:00:55:10.224
00:58:07.859 : en:00:58:07.859
01:08:42.327 : en:01:08:42.327
01:12:22.338 : en:01:12:22.338
01:15:45.708 : en:01:15:45.708
01:19:10.162 : en:01:19:10.162
01:22:46.837 : en:01:22:46.837
01:25:09.688 : en:01:25:09.688
01:28:07.741 : en:01:28:07.741
01:31:15.553 : en:01:31:15.553
01:36:02.757 : en:01:36:02.757
01:37:35.892 : en:01:37:35.892
01:40:35.404 : en:01:40:35.404
01:45:16.519 : en:01:45:16.519
01:48:44.476 : en:01:48:44.476
01:50:31.750 : en:01:50:31.750
01:52:36.541 : en:01:52:36.541
01:53:08.448 : en:01:53:08.448
01:59:16.358 : en:01:59:16.358
02:07:11.833 : en:02:07:11.833
02:07:39.110 : en:02:07:39.110
02:09:22.672 : en:02:09:22.672
02:12:48.586 : en:02:12:48.586
02:22:00.846 : en:02:22:00.846
02:22:43.430 : en:02:22:43.430
02:23:17.923 : en:02:23:17.923
02:24:56.396 : en:02:24:56.396
02:26:45.088 : en:02:26:45.088
02:29:18.825 : en:02:29:18.825
02:33:12.975 : en:02:33:12.975
02:34:57.622 : en:02:34:57.622
02:36:13.155 : en:02:36:13.155
02:37:45.956 : en:02:37:45.956
02:39:08.831 : en:02:39:08.831
02:41:39.940 : en:02:41:39.940
02:44:06.003 : en:02:44:06.003
02:51:16.683 : en:02:51:16.683
02:56:05.555 : en:02:56:05.555
Скриншоты
Source vs Encode



Скачать

Скачать торрент!

Как скачивать? · Что такое торрент? · Рейтинг и ограничения

Сайт не распространяет и не хранит электронные версии произведений, а лишь предоставляет доступ к создаваемому пользователями каталогу ссылок на торрент-файлы, которые содержат только списки хеш-сумм

[Профиль] [ЛС]
Показать сообщения:    
Ответить на тему

Текущее время: Сегодня 20:34

Часовой пояс: GMT + 4



Вы не можете начинать темы
Вы не можете отвечать на сообщения
Вы не можете редактировать свои сообщения
Вы не можете удалять свои сообщения
Вы не можете голосовать в опросах
Вы не можете прикреплять файлы к сообщениям
Вы не можете скачивать файлы