Лохматый спецназ! / Good Boy! (Джон Роберт Хоффман / John Hoffman) [2003, США, семейный, комедия, WEB-DL 720p] Dub + DVO (НТВ) + MVO + Sub (Rus, Eng) + Original Eng

Ответить на тему
 
Автор Сообщение

user ®

Стаж: 7 лет 7 месяцев

Сообщений: 20008

Пост Пост: #1 от 02-Дек-2014 05:20

[Цитировать]

Лохматый спецназ! / Good Boy!«Без паники! Планета в надёжных лапах»- Страна: США
Студия: Metro-Goldwyn-Mayer (MGM), Jim Henson Pictures
Жанр: семейный, комедия
Год выпуска: 2003
Продолжительность: 01:27:41
Перевод:

  • Профессиональный (дублированный)
  • Профессиональный (многоголосый закадровый)
  • Профессиональный (двухголосый закадровый) НТВ+-Оригинальная аудиодорожка: английский
    Русские субтитры: есть (R5)
    Другие субтитры: английские, английские (для слабослышащих)-Режиссер: Джон Роберт Хоффман / John Hoffman
    Сценарий: Джон Роберт Хоффман / John Hoffman, Зик Ричардсон / Zeke Richardson
    Композитор: Марк Мазерсбо / Mark Mothersbaugh
    Оператор: Джеймс Гленнон / James Glennon
    В ролях: Молли Шеннон / Molly Shannon, Лиам Эйкен / Liam Aiken, Кевин Нилон / Kevin Nealon, Бриттани Молдован / Brittany Moldowan, Джордж Тулиатос / George Touliatos, Патти Аллан / Patti Allan, Хантер Эллиотт / Hunter Elliott, Михаэль Шпидель / Mikhael Speidel, Бенжамин Рэтнер / Benjamin Ratner-Описание: Двенадцатилетний Оуэн Бэйкер выгуливал чужих собак и мечтал о своей. И вот мечта сбылась - ему подарили собаку. Но под видом милого лохматого симпатяги скрывается кто-то совсем другой - в доме Оуэна поселился инопланетный разведчик...
    Фильм снят на основе рассказа Зика Ричардсона «Собаки из космоса»- -Тип релиза: WEB-DL 720p Источник видеоряда - http://itunes.apple.com/au/movie/good-boy!/id280399643" class="postLink">iTunesКонтейнер: MKV
    Видео: H264, High@L3.1, 1280x694 (1.85:1), 23.976 fps, 0.188 bpp, 4 011 Kbps
    Аудио 1: AC3, 48 kHz, 3/2 (L,C,R,l,r) + LFE ch, 448 kbps | Russian DUB
    Аудио 2: AC3, 48 kHz, 3/2 (L,C,R,l,r) + LFE ch, 384 kbps | Russian MVO
    Аудио 3: AC3, 48 kHz, 2 (L,R), 192 kbps | Russian DVO (НТВ+)
    Аудио 4: AC3, 48 kHz, 3/2 (L,C,R,l,r) + LFE ch, 384 kbps | English
    Субтитры: русские (R5), английские, английские (для слабослышащих)
    Формат субтитров: softsub (SRT)-

    Знаете ли вы, что...
  • Лиаму Эйкену за его работу в фильме был подарен щенок итальянского грейхаунда, которого он назвал Кес. Ему передали его в последний день съемок, но только вечером, поскольку в этот же день снималась его самая печальная сцена в фильме и съёмочная группа не хотела, чтобы он был слишком радостным в этот момент.
  • На кепке персонажа Лиама Эйкена написано «GB03» — первые буквы названия фильма (Good Boy!) и год его выхода в прокат (2003).
  • Режиссёр фильма разрешил Лиаму Эйкену подержать камеру и снять один кадр. Но впоследствии он был вырезан и не попал в финальную версию картины.
MediaInfo
Complete name                  : Good.Boy.2003.WEB-DL.720p.H264.mkv
Format                         : Matroska
Format version                 : Version 2
File size                      : 3.39 GiB
Duration                       : 1h 27mn
Overall bit rate               : 5 529 Kbps
Movie name                     : Good Boy! (2003)
Encoded date                   : UTC 2014-12-02 00:52:48
Writing application            : mkvmerge v4.9.1 ('Ich will') сборка от Jul 11 2011 23:53:15
Writing library                : libebml v1.2.1 + libmatroska v1.1.1
Video
ID                             : 1
Format                         : AVC
Format/Info                    : Advanced Video Codec
Format profile                 : High@L3.1
Format settings, CABAC         : No
Format settings, ReFrames      : 2 frames
Codec ID                       : V_MPEG4/ISO/AVC
Duration                       : 1h 27mn
Bit rate                       : 4 011 Kbps
Width                          : 1 280 pixels
Height                         : 694 pixels
Display aspect ratio           : 1.85:1
Frame rate mode                : Constant
Frame rate                     : 23.976 fps
Color space                    : YUV
Chroma subsampling             : 4:2:0
Bit depth                      : 8 bits
Scan type                      : Progressive
Bits/(Pixel*Frame)             : 0.188
Stream size                    : 2.46 GiB (73%)
Title                          : tt0326900
Language                       : English
Default                        : Yes
Forced                         : No
Color primaries                : BT.709
Transfer characteristics       : BT.709
Matrix coefficients            : BT.709
Audio #1
ID                             : 2
Format                         : AC-3
Format/Info                    : Audio Coding 3
Mode extension                 : CM (complete main)
Format settings, Endianness    : Big
Codec ID                       : A_AC3
Duration                       : 1h 27mn
Bit rate mode                  : Constant
Bit rate                       : 448 Kbps
Channel(s)                     : 6 channels
Channel positions              : Front: L C R, Side: L R, LFE
Sampling rate                  : 48.0 KHz
Bit depth                      : 16 bits
Compression mode               : Lossy
Stream size                    : 281 MiB (8%)
Title                          : Russian DUB
Language                       : Russian
Default                        : Yes
Forced                         : No
Audio #2
ID                             : 3
Format                         : AC-3
Format/Info                    : Audio Coding 3
Mode extension                 : CM (complete main)
Format settings, Endianness    : Big
Codec ID                       : A_AC3
Duration                       : 1h 27mn
Bit rate mode                  : Constant
Bit rate                       : 384 Kbps
Channel(s)                     : 6 channels
Channel positions              : Front: L C R, Side: L R, LFE
Sampling rate                  : 48.0 KHz
Bit depth                      : 16 bits
Compression mode               : Lossy
Stream size                    : 241 MiB (7%)
Title                          : Russian MVO
Language                       : Russian
Default                        : No
Forced                         : No
Audio #3
ID                             : 4
Format                         : AC-3
Format/Info                    : Audio Coding 3
Mode extension                 : CM (complete main)
Format settings, Endianness    : Big
Codec ID                       : A_AC3
Duration                       : 1h 27mn
Bit rate mode                  : Constant
Bit rate                       : 192 Kbps
Channel(s)                     : 2 channels
Channel positions              : Front: L R
Sampling rate                  : 48.0 KHz
Bit depth                      : 16 bits
Compression mode               : Lossy
Stream size                    : 120 MiB (3%)
Title                          : Russian DVO (NTV+)
Language                       : Russian
Default                        : No
Forced                         : No
Audio #4
ID                             : 5
Format                         : AC-3
Format/Info                    : Audio Coding 3
Mode extension                 : CM (complete main)
Format settings, Endianness    : Big
Codec ID                       : A_AC3
Duration                       : 1h 27mn
Bit rate mode                  : Constant
Bit rate                       : 384 Kbps
Channel(s)                     : 6 channels
Channel positions              : Front: L C R, Side: L R, LFE
Sampling rate                  : 48.0 KHz
Bit depth                      : 16 bits
Compression mode               : Lossy
Stream size                    : 241 MiB (7%)
Title                          : English
Language                       : English
Default                        : No
Forced                         : No
Text #1
ID                             : 6
Format                         : UTF-8
Codec ID                       : S_TEXT/UTF8
Codec ID/Info                  : UTF-8 Plain Text
Title                          : Russian
Language                       : Russian
Default                        : No
Forced                         : No
Text #2
ID                             : 7
Format                         : UTF-8
Codec ID                       : S_TEXT/UTF8
Codec ID/Info                  : UTF-8 Plain Text
Title                          : English
Language                       : English
Default                        : No
Forced                         : No
Text #3
ID                             : 8
Format                         : UTF-8
Codec ID                       : S_TEXT/UTF8
Codec ID/Info                  : UTF-8 Plain Text
Title                          : English for the Hearing Impaired
Language                       : English
Default                        : No
Forced                         : No
Menu
00:00:00.000                   : en:Main Title
00:02:06.000                   : en:The Dog Has Landed
00:03:35.000                   : en:Adoption Day!
00:05:17.000                   : en:Dog Boy On The Job
00:07:33.000                   : en:A Strange Stray
00:08:52.000                   : en:Little Prisoner
00:10:51.000                   : en:Training Day
00:13:01.000                   : en:Doggie's Dark Secret
00:16:30.000                   : en:Owen's Better Hearing
00:18:58.000                   : en:Mission From The Dog Star
00:21:54.000                   : en:Looking Crazy
00:24:09.000                   : en:Man's Best... What?
00:27:12.000                   : en:Lazy, Greedy Pets!
00:30:06.000                   : en:A Temporary Mission
00:32:42.000                   : en:Dignity 101
00:36:30.000                   : en:Playing Ball
00:40:51.000                   : en:A Bad Influence
00:41:38.000                   : en:"Greater Dane Arriving"
00:45:37.000                   : en:Pageantry And La-Di-Da
00:47:48.000                   : en:A Formal Dinner
00:49:28.000                   : en:The Mind Fence
00:51:49.000                   : en:Open-House Day
00:54:53.000                   : en:A Close Shave
00:58:06.000                   : en:Her Royal Heinie
01:00:19.000                   : en:"Love!?"
01:03:49.000                   : en:Sad Dogs
01:06:55.000                   : en:All Gone
01:10:53.000                   : en:"You're A Good Boy"
01:12:53.000                   : en:3942'S Loyalty
01:14:13.000                   : en:Time To Go
01:16:30.000                   : en:Return From Sirius
01:22:11.000                   : en:End Credits
Скриншоты
Скачать

Скачать торрент!

Как скачивать? · Что такое торрент? · Рейтинг и ограничения

Сайт не распространяет и не хранит электронные версии произведений, а лишь предоставляет доступ к создаваемому пользователями каталогу ссылок на торрент-файлы, которые содержат только списки хеш-сумм

[Профиль] [ЛС]
Показать сообщения:    
Ответить на тему

Текущее время: Сегодня 12:23

Часовой пояс: GMT + 4



Вы не можете начинать темы
Вы не можете отвечать на сообщения
Вы не можете редактировать свои сообщения
Вы не можете удалять свои сообщения
Вы не можете голосовать в опросах
Вы не можете прикреплять файлы к сообщениям
Вы не можете скачивать файлы