Закон зайца (2 серии из 2) (Евгений Аксенов) [2007, Россия, комедия, детектив, DVDRip]

Ответить на тему
 
Автор Сообщение

user ®

Стаж: 7 лет 7 месяцев

Сообщений: 20008

Пост Пост: #1 от 02-Дек-2014 05:20

[Цитировать]

Закон зайца«Даже заяц иногда может стать волком...» Год выпуска: 2007
Жанр: комедия, детектив
Продолжительность: 00:51:37 + 00:51:46
Субтитры: отсутствуют
Режиссер: Евгений Аксенов
В ролях: Илья Олейников, Дмитрий Барков, Ольга Арикова, Станислав Никольский, Александр Тютрюмов, Сергей Кошонин, Сергей Лосев, Ляля Миропольская, Семён Стругачев, Сергей Мурзин...
Описание: В городе трех революций организована новая партия — «Партия Русаков», чьим символом является истинно русский зверек заяц-русак. Во время партийного митинга на главу партии совершено покушение. Покушение оказывается двойным — машина была заминирована заранее. Почему именно на этого человека совершено покушение? За расследование берется детективное агентство «Леон». Поиски приводят к незаметному человеку. Но бывают ситуации, когда волк должен бояться доведенного до отчаяния зайца…

Качество: DVDRip / DVD5 R5 от «Компания АТК Студио»
Формат: AVI
Видео: 704x384 (1.83:1), 25.000 fps, XviD, ~1816 kbps avg, 0.269 bit/pix
Аудио: 48 kHz, Dolby AC3, 2 ch, 192 kbps, русский[url=http://***/forum/tracker.php?nm=%D0%97%D0%B0%D0%BA%D0%BE%D0%BD%20%D0%B7%D0%B0%D0%B9%D1%86%D0%B0]Все раздачи сериала[/url]MediaInfo
General
Format : AVI
Format/Info : Audio Video Interleave
File size : 745 MiB
Duration : 51mn 37s
Overall bit rate : 2 018 Kbps
Writing application : VirtualDubMod 1.5.10.3 | www.virtualdub-fr.org || (build 2550/release)
Writing library : VirtualDubMod build 2550/release
Video
ID : 0
Format : MPEG-4 Visual
Format profile : Advanced Simple@L5
Format settings, BVOP : 1
Format settings, QPel : No
Format settings, GMC : No warppoints
Format settings, Matrix : Custom
Codec ID : XVID
Codec ID/Hint : XviD
Duration : 51mn 37s
Bit rate : 1 816 Kbps
Width : 704 pixels
Height : 384 pixels
Display aspect ratio : 1.85:1
Frame rate : 25.000 fps
Color space : YUV
Chroma subsampling : 4:2:0
Bit depth : 8 bits
Scan type : Progressive
Compression mode : Lossy
Bits/(Pixel*Frame) : 0.269
Stream size : 670 MiB (90%)
Writing library : XviD 73
Audio
ID : 1
Format : AC-3
Format/Info : Audio Coding 3
Mode extension : CM (complete main)
Format settings, Endianness : Big
Codec ID : 2000
Duration : 51mn 36s
Bit rate mode : Constant
Bit rate : 192 Kbps
Channel(s) : 2 channels
Channel positions : Front: L R
Sampling rate : 48.0 KHz
Bit depth : 16 bits
Compression mode : Lossy
Stream size : 70.9 MiB (10%)
Alignment : Split accross interleaves
Interleave, duration : 40 ms (1.00 video frame)
Interleave, preload duration : 500 ms
Скриншоты: Сравнение:
[url=http://***/forum/viewtopic.php?t=786820]http://***/forum/viewtopic.php?t=786820[/url] http://screenshotcomparison.com/comparison/102450 у конкурента апскейл 16 пикселей, неполная картинка и качество похуже.
Скачать

Скачать торрент!

Как скачивать? · Что такое торрент? · Рейтинг и ограничения

Сайт не распространяет и не хранит электронные версии произведений, а лишь предоставляет доступ к создаваемому пользователями каталогу ссылок на торрент-файлы, которые содержат только списки хеш-сумм

[Профиль] [ЛС]
Показать сообщения:    
Ответить на тему

Текущее время: Сегодня 03:08

Часовой пояс: GMT + 4



Вы не можете начинать темы
Вы не можете отвечать на сообщения
Вы не можете редактировать свои сообщения
Вы не можете удалять свои сообщения
Вы не можете голосовать в опросах
Вы не можете прикреплять файлы к сообщениям
Вы не можете скачивать файлы