Сын (Арсений Гончуков) [2014, Драма, HDTVRip]

Ответить на тему
 
Автор Сообщение

user ®

Стаж: 7 лет 7 месяцев

Сообщений: 20008

Пост Пост: #1 от 02-Дек-2014 05:20

[Цитировать]

Сын
Жанр: Драма
Год выпуска: 2014
Продолжительность: 01:32:58
Режиссёр: Арсений Гончуков
В ролях: Алексей Черных, Вадим Андреев, Елена Тонунц, Оксана Эрдлей, Лидия Омутных, Янина Когут, Валерий Карибьян, Ольга Малахова, Дмитрий Курьянов
Описание:Глубоко переживая потерю матери, сын отправляется в путь, чтобы разобраться в себе, встретиться с сестрой, давно уехавшей из дома, взглянуть в глаза отцу, бросившему семью… Фильм-притча, фильм-сон, фильм-поэма - о любви и нелюбви между, казалось бы, самыми близкими людьми...Возрастные ограничения: 16+
Сэмпл
Качество видео: HDTVRip
Формат видео: AVI
Видео: XviD, 720x400 (16:9), 25.000 fps, 1 631 Kbps (0.227 bit/pixel)
Аудио: AC-3, 48.0 KHz, 6 ch, 448 Kbps, CBR
MediaInfo
Format : AVI
Format/Info : Audio Video Interleave
Format profile : OpenDML
File size : 1.36 GiB
Duration : 1h 32mn
Overall bit rate : 2 092 Kbps
Writing application : Lavf51.12.1
Video
ID : 0
Format : xvid
Codec ID : xvid
Duration : 1h 32mn
Bit rate : 1 631 Kbps
Width : 720 pixels
Height : 400 pixels
Display aspect ratio : 16:9
Frame rate : 25.000 fps
Bits/(Pixel*Frame) : 0.227
Stream size : 1.06 GiB (78%)
Audio
ID : 1
Format : AC-3
Format/Info : Audio Coding 3
Mode extension : CM (complete main)
Format settings, Endianness : Big
Codec ID : 2000
Duration : 1h 32mn
Bit rate mode : Constant
Bit rate : 448 Kbps
Channel(s) : 6 channels
Channel positions : Front: L C R, Side: L R, LFE
Sampling rate : 48.0 KHz
Bit depth : 16 bits
Compression mode : Lossy
Stream size : 298 MiB (21%)
Alignment : Aligned on interleaves
Interleave, duration : 32 ms (0.80 video frame)
Скриншот c названием фильма Скриншоты
Скачать

Скачать торрент!

Как скачивать? · Что такое торрент? · Рейтинг и ограничения

Сайт не распространяет и не хранит электронные версии произведений, а лишь предоставляет доступ к создаваемому пользователями каталогу ссылок на торрент-файлы, которые содержат только списки хеш-сумм

[Профиль] [ЛС]
Показать сообщения:    
Ответить на тему

Текущее время: Сегодня 07:01

Часовой пояс: GMT + 4



Вы не можете начинать темы
Вы не можете отвечать на сообщения
Вы не можете редактировать свои сообщения
Вы не можете удалять свои сообщения
Вы не можете голосовать в опросах
Вы не можете прикреплять файлы к сообщениям
Вы не можете скачивать файлы