Закон зайца (2 серии из 2) (Евгений Аксенов) [2007, Россия, комедия, детектив, DVDRip-AVC]

Ответить на тему
 
Автор Сообщение

user ®

Стаж: 7 лет 7 месяцев

Сообщений: 20008

Пост Пост: #1 от 02-Дек-2014 05:20

[Цитировать]

Закон зайца«Даже заяц иногда может стать волком...» Год выпуска: 2007
Жанр: комедия, детектив
Продолжительность: 00:51:37 + 00:51:46
Субтитры: отсутствуют
Режиссер: Евгений Аксенов
В ролях: Илья Олейников, Дмитрий Барков, Ольга Арикова, Станислав Никольский, Александр Тютрюмов, Сергей Кошонин, Сергей Лосев, Ляля Миропольская, Семён Стругачев, Сергей Мурзин...
Описание: В городе трех революций организована новая партия — «Партия Русаков», чьим символом является истинно русский зверек заяц-русак. Во время партийного митинга на главу партии совершено покушение. Покушение оказывается двойным — машина была заминирована заранее. Почему именно на этого человека совершено покушение? За расследование берется детективное агентство «Леон». Поиски приводят к незаметному человеку. Но бывают ситуации, когда волк должен бояться доведенного до отчаяния зайца…

Качество: DVDRip-AVC / DVD5 R5 от «Компания АТК Студио»
Формат: MKV
Видео: 704x416@762x416 (1.83:1), 25.000 fps, MPEG-4 AVC, ~1822 kbps avg, 0.249 bit/pix
Аудио: 48 kHz, Dolby AC3, 2 ch, 192 kbps, русский[url=http://***/forum/tracker.php?nm=%D0%97%D0%B0%D0%BA%D0%BE%D0%BD%20%D0%B7%D0%B0%D0%B9%D1%86%D0%B0]Все раздачи сериала[/url]MediaInfo
General
Format : Matroska
Format version : Version 2
File size : 744 MiB
Duration : 51mn 37s
Overall bit rate : 2 016 Kbps
Encoded date : UTC 2014-12-01 04:10:31
Writing application : mkvmerge v6.1.0 ('Old Devil') built on Mar 4 2013 09:10:42
Writing library : libebml v1.3.0 + libmatroska v1.4.0
Video
ID : 1
Format : AVC
Format/Info : Advanced Video Codec
Format profile : High@L4.1
Format settings, CABAC : Yes
Format settings, ReFrames : 8 frames
Codec ID : V_MPEG4/ISO/AVC
Duration : 51mn 37s
Bit rate : 1 822 Kbps
Width : 704 pixels
Height : 416 pixels
Display aspect ratio : 16:9
Frame rate mode : Constant
Frame rate : 25.000 fps
Color space : YUV
Chroma subsampling : 4:2:0
Bit depth : 8 bits
Scan type : Progressive
Bits/(Pixel*Frame) : 0.249
Stream size : 659 MiB (88%)
Writing library : x264 core 138 r2356 a1d3d17
Encoding settings : cabac=1 / ref=8 / deblock=1:-2:-1 / analyse=0x3:0x113 / me=umh / subme=10 / psy=1 / psy_rd=1.00:0.05 / mixed_ref=1 / me_range=32 / chroma_me=1 / trellis=2 / 8x8dct=1 / cqm=0 / deadzone=21,11 / fast_pskip=0 / chroma_qp_offset=-3 / threads=9 / lookahead_threads=1 / sliced_threads=0 / nr=0 / decimate=0 / interlaced=0 / bluray_compat=0 / constrained_intra=0 / bframes=8 / b_pyramid=2 / b_adapt=2 / b_bias=0 / direct=3 / weightb=1 / open_gop=0 / weightp=2 / keyint=250 / keyint_min=25 / scenecut=40 / intra_refresh=0 / rc=2pass / mbtree=0 / bitrate=1822 / ratetol=1.0 / qcomp=0.60 / qpmin=0 / qpmax=69 / qpstep=4 / cplxblur=20.0 / qblur=0.5 / ip_ratio=1.40 / pb_ratio=1.30 / aq=1:1.00
Default : Yes
Forced : No
Audio
ID : 2
Format : AC-3
Format/Info : Audio Coding 3
Mode extension : CM (complete main)
Format settings, Endianness : Big
Codec ID : A_AC3
Duration : 51mn 37s
Bit rate mode : Constant
Bit rate : 192 Kbps
Channel(s) : 2 channels
Channel positions : Front: L R
Sampling rate : 48.0 KHz
Bit depth : 16 bits
Compression mode : Lossy
Stream size : 70.9 MiB (10%)
Default : Yes
Forced : No
Скриншоты:
Скачать

Скачать торрент!

Как скачивать? · Что такое торрент? · Рейтинг и ограничения

Сайт не распространяет и не хранит электронные версии произведений, а лишь предоставляет доступ к создаваемому пользователями каталогу ссылок на торрент-файлы, которые содержат только списки хеш-сумм

[Профиль] [ЛС]
Показать сообщения:    
Ответить на тему

Текущее время: Сегодня 02:10

Часовой пояс: GMT + 4



Вы не можете начинать темы
Вы не можете отвечать на сообщения
Вы не можете редактировать свои сообщения
Вы не можете удалять свои сообщения
Вы не можете голосовать в опросах
Вы не можете прикреплять файлы к сообщениям
Вы не можете скачивать файлы