Сtpaжи Гaлaktиkи / Guаrдiаns оф thе Gаlаху (Dжeймc Гaнн / Jаmеs Guпп) [2014, США, Великобритания, Фантастика, боевик, приключения, BDRip-AVC] [IMAX] Dub (Rus) + Original (Eng) + Subs

Ответить на тему
 
Автор Сообщение

user ®

Стаж: 7 лет 7 месяцев

Сообщений: 20008

Пост Пост: #1 от 02-Дек-2014 05:20

[Цитировать]

Сtpaжи Гaлaktиkи / Guаrдiаns оф thе Gаlаху
«Мстители спасают лишь Землю бренную, а эти ребята спасают Вселенную»
- Страна: США, Великобритания | Marvel Enterprises, Marvel Studios, Moving Picture Company
Жанр: Фантастика, боевик, приключения
Год выпуска: 2014
Продолжительность: 02:00:51 час.
Перевод: Профессиональный (полное дублирование) - Blu-Ray CEE
Субтитры: Русские (полные, форсированные), Украинские (форсированные), Английские (полные, SDH, SDH.Color, Commentary).
Оригинальная аудиодорожка: Английская
Навигация по главам: Присутствует (22 главы)
Режиссер: Dжeймc Гaнн / Jаmеs Guпп
В ролях: Крис Прэтт (Peter Quill), Зои Салдана (Gamora), Дэйв Батиста (Drax), Брэдли Купер (Rocket, озвучка), Вин Дизель (Groot, озвучка), Ли Пейс (Ronan), Майкл Рукер (Yondu Udonta), Карен Гиллан (Nebula), Гленн Клоуз (Nova Prime), Джимон Хонсу (Korath), Джон Си Райли (Corpsman Dey), Бенисио Дель Торо (The Collector)
Описание: Отважному путешественнику Питеру Квиллу попадает в руки таинственный артефакт, принадлежащий могущественному и безжалостному злодею Ронану, строящему коварные планы по захвату Вселенной. Питер оказывается в центре межгалактической охоты, где жертва — он сам.
Единственный способ спасти свою жизнь — объединиться с четверкой нелюдимых изгоев: воинственным енотом по кличке Ракета, человекоподобным деревом Грутом, смертельно опасной Гаморой и одержимым жаждой мести Драксом, также известным как Разрушитель. Когда Квилл понимает, какой силой обладает украденный артефакт и какую опасность он представляет для вселенной, одиночка пойдет на все, чтобы сплотить случайных союзников для решающей битвы за судьбу галактики.

Качество: BDRip-AVC => Сэмпл | исх. Стражи Галактики / Guardians of the Galaxy (2014) Blu-ray EUR 1080p AVC DD5.1-NiP - HDCLUB
Формат видео: MKV
Видео: 1152x648p (16:9), 23,976 fps, H.264 ~2 626 kbps avg, 0.143 bit/pixel
Аудио #1: 48 kHz, AC3, 3/2 (L,C,R,l,r) + LFE ch, ~448.00 kbps avg | Профессиональный (полное дублирование) - Blu-Ray CEE
Аудио #2: 48 kHz, AC3, 3/2 (L,C,R,l,r) + LFE ch, ~448.00 kbps avg | Оригинал (английский)
Формат субтитров: softsub (SRT)
MediaInfo | log x264
log x264
raw [info]: 1152x648p 1:1 @ 24000/1001 fps (cfr)
x264 [info]: using SAR=1/1
x264 [info]: using cpu capabilities: MMX2 SSE2Fast SSSE3 SSE4.2 AVX
x264 [info]: profile High, level 4.1
x264 [info]: cabac=1 ref=11 deblock=1:-2:-2 analyse=0x3:0x133 me=umh subme=11 psy=1 fade_compensate=0.00 psy_rd=1.00:0.00 mixed_ref=1 me_range=32 chroma_me=1 trellis=2 8x8dct=1 cqm=0 deadzone=21,11 fast_pskip=0 chroma_qp_offset=-2 threads=6 lookahead_threads=1 sliced_threads=0 nr=0 decimate=1 interlaced=0 bluray_compat=0 constrained_intra=0 fgo=0 bframes=16 b_pyramid=2 b_adapt=2 b_bias=0 direct=1 weightb=1 open_gop=0 weightp=2 keyint=250 keyint_min=23 scenecut=40 intra_refresh=0 rc_lookahead=40 rc=crf mbtree=0 crf=18.9000 qcomp=0.70 qpmin=0 qpmax=69 qpstep=4 vbv_maxrate=50000 vbv_bufsize=62500 crf_max=0.0 nal_hrd=none filler=0 ip_ratio=1.25 pb_ratio=1.25 aq=3:1.00
x264 [info]: frame I:1560 Avg QP:14.92 size: 60938
x264 [info]: frame P:38426 Avg QP:16.27 size: 27809
x264 [info]: frame B:133869 Avg QP:17.86 size: 9090
x264 [info]: consecutive B-frames: 3.1% 2.4% 7.7% 19.9% 19.4% 34.4% 5.0% 2.8% 1.1% 0.6% 1.4% 1.0% 0.3% 0.4% 0.1% 0.1% 0.2%
x264 [info]: mb I I16..4: 18.8% 59.4% 21.8%
x264 [info]: mb P I16..4: 1.7% 16.1% 2.5% P16..4: 24.2% 26.1% 8.5% 1.5% 0.1% skip:19.2%
x264 [info]: mb B I16..4: 0.3% 2.0% 0.3% B16..8: 27.3% 16.6% 2.5% direct: 4.4% skip:46.7% L0:41.9% L1:45.2% BI:12.9%
x264 [info]: 8x8 transform intra:76.8% inter:61.0%
x264 [info]: coded y,uvDC,uvAC intra: 80.6% 77.5% 49.2% inter: 17.0% 15.3% 2.2%
x264 [info]: i16 v,h,dc,p: 20% 16% 12% 52%
x264 [info]: i8 v,h,dc,ddl,ddr,vr,hd,vl,hu: 8% 8% 5% 10% 13% 12% 15% 12% 16%
x264 [info]: i4 v,h,dc,ddl,ddr,vr,hd,vl,hu: 9% 14% 6% 8% 14% 12% 14% 10% 14%
x264 [info]: i8c dc,h,v,p: 31% 33% 18% 18%
x264 [info]: Weighted P-Frames: Y:6.1% UV:4.3%
x264 [info]: ref P L0: 48.6% 10.5% 17.4% 6.3% 4.9% 3.5% 2.9% 1.6% 1.5% 1.3% 1.3% 0.3% 0.0%
x264 [info]: ref B L0: 74.5% 11.1% 5.4% 2.9% 2.0% 1.6% 1.2% 0.7% 0.4% 0.2%
x264 [info]: ref B L1: 92.9% 7.1%
x264 [info]: kb/s:2626.43
encoded 173855 frames, 3.68 fps, 2626.44 kb/s
General
Unique ID : 219136314245305865936701784866523008809 (0xA4DC1E738EBCDEE38D8F8AC8C7194F29)
Complete name : Guardians.of.the.Galaxy.2014.BDRip-AVC.IMAX.Rus.Eng.Subs.by.zOJIOtOi.mkv
Format : Matroska
Format version : Version 4 / Version 2
File size : 2.98 GiB
Duration : 2h 0mn
Overall bit rate : 3 527 Kbps
Encoded date : UTC 2014-11-27 10:20:01
Writing application : mkvmerge v7.0.0 ('Where We Going') 64bit built on Jun 9 2014 15:16:27
Writing library : libebml v1.3.0 + libmatroska v1.4.1
DURATION : 02:00:39.608000000
NUMBER_OF_FRAMES : 2316
NUMBER_OF_BYTES : 119923
_STATISTICS_WRITING_APP : mkvmerge v7.0.0 ('Where We Going') 64bit built on Jun 9 2014 15:16:27
_STATISTICS_WRITING_DATE_UTC : 2014-11-27 10:20:01
_STATISTICS_TAGS : BPS DURATION NUMBER_OF_FRAMES NUMBER_OF_BYTES
Attachment : Yes / Yes
Video
ID : 1
Format : AVC
Format/Info : Advanced Video Codec
Format profile : High@L4.1
Format settings, CABAC : Yes
Format settings, ReFrames : 11 frames
Codec ID : V_MPEG4/ISO/AVC
Duration : 2h 0mn
Bit rate : 2 560 Kbps
Width : 1 152 pixels
Height : 648 pixels
Display aspect ratio : 16:9
Frame rate mode : Constant
Frame rate : 23.976 fps
Color space : YUV
Chroma subsampling : 4:2:0
Bit depth : 8 bits
Scan type : Progressive
Bits/(Pixel*Frame) : 0.143
Stream size : 2.16 GiB (73%)
Title : Guardians.of.the.Galaxy.2014.BDRip-AVC.IMAX.by.zOJIOtOi
Writing library : x264 core 142 r2453kMod ea0ca51
Encoding settings : cabac=1 / ref=11 / deblock=1:-2:-2 / analyse=0x3:0x133 / me=umh / subme=11 / psy=1 / fade_compensate=0.00 / psy_rd=1.00:0.00 / mixed_ref=1 / me_range=32 / chroma_me=1 / trellis=2 / 8x8dct=1 / cqm=0 / deadzone=21,11 / fast_pskip=0 / chroma_qp_offset=-2 / threads=6 / lookahead_threads=1 / sliced_threads=0 / nr=0 / decimate=1 / interlaced=0 / bluray_compat=0 / constrained_intra=0 / fgo=0 / bframes=16 / b_pyramid=2 / b_adapt=2 / b_bias=0 / direct=1 / weightb=1 / open_gop=0 / weightp=2 / keyint=250 / keyint_min=23 / scenecut=40 / intra_refresh=0 / rc_lookahead=40 / rc=crf / mbtree=0 / crf=18.9000 / qcomp=0.70 / qpmin=0 / qpmax=69 / qpstep=4 / vbv_maxrate=50000 / vbv_bufsize=62500 / crf_max=0.0 / nal_hrd=none / filler=0 / ip_ratio=1.25 / pb_ratio=1.25 / aq=3:1.00
Language : English
Default : Yes
Forced : No
DURATION : 02:00:51.203000000
NUMBER_OF_FRAMES : 173855
NUMBER_OF_BYTES : 2380601401
_STATISTICS_WRITING_APP : mkvmerge v7.0.0 ('Where We Going') 64bit built on Jun 9 2014 15:16:27
_STATISTICS_WRITING_DATE_UTC : 2014-11-27 10:20:01
_STATISTICS_TAGS : BPS DURATION NUMBER_OF_FRAMES NUMBER_OF_BYTES
Color primaries : BT.709
Transfer characteristics : BT.709
Matrix coefficients : BT.709
Audio #1
ID : 2
Format : AC-3
Format/Info : Audio Coding 3
Mode extension : CM (complete main)
Format settings, Endianness : Big
Codec ID : A_AC3
Duration : 2h 0mn
Bit rate mode : Constant
Bit rate : 448 Kbps
Channel(s) : 6 channels
Channel positions : Front: L C R, Side: L R, LFE
Sampling rate : 48.0 KHz
Bit depth : 16 bits
Compression mode : Lossy
Stream size : 387 MiB (13%)
Title : Профессиональный (полное дублирование) | DD 5.1 @ 448 kbps
Language : Russian
Default : Yes
Forced : No
Audio #2
ID : 3
Format : AC-3
Format/Info : Audio Coding 3
Mode extension : CM (complete main)
Format settings, Endianness : Big
Codec ID : A_AC3
Duration : 2h 0mn
Bit rate mode : Constant
Bit rate : 448 Kbps
Channel(s) : 6 channels
Channel positions : Front: L C R, Side: L R, LFE
Sampling rate : 48.0 KHz
Bit depth : 16 bits
Compression mode : Lossy
Stream size : 387 MiB (13%)
Title : Оригинал (английский) | DD 5.1 @ 448 kbps
Language : English
Default : No
Forced : No
Text #1
ID : 4
Format : UTF-8
Codec ID : S_TEXT/UTF8
Codec ID/Info : UTF-8 Plain Text
Title : Full
Language : Russian
Default : No
Forced : No
Text #2
ID : 5
Format : UTF-8
Codec ID : S_TEXT/UTF8
Codec ID/Info : UTF-8 Plain Text
Title : Forced
Language : Russian
Default : Yes
Forced : No
Text #3
ID : 6
Format : UTF-8
Codec ID : S_TEXT/UTF8
Codec ID/Info : UTF-8 Plain Text
Title : Forced
Language : Ukrainian
Default : No
Forced : No
Text #4
ID : 7
Format : UTF-8
Codec ID : S_TEXT/UTF8
Codec ID/Info : UTF-8 Plain Text
Title : Blu-Ray CEE
Language : English
Default : No
Forced : No
Text #5
ID : 8
Format : UTF-8
Codec ID : S_TEXT/UTF8
Codec ID/Info : UTF-8 Plain Text
Title : Full
Language : English
Default : No
Forced : No
Text #6
ID : 9
Format : UTF-8
Codec ID : S_TEXT/UTF8
Codec ID/Info : UTF-8 Plain Text
Title : SDH
Language : English
Default : No
Forced : No
Text #7
ID : 10
Format : UTF-8
Codec ID : S_TEXT/UTF8
Codec ID/Info : UTF-8 Plain Text
Title : SDH.COLOR
Language : English
Default : No
Forced : No
Text #8
ID : 11
Format : UTF-8
Codec ID : S_TEXT/UTF8
Codec ID/Info : UTF-8 Plain Text
Title : Commentary
Language : English
Default : No
Forced : No
Menu
00:00:00.000 : en:Chapter 01
00:04:05.702 : en:Chapter 02
00:11:21.806 : en:Chapter 03
00:15:21.711 : en:Chapter 04
00:20:54.419 : en:Chapter 05
00:27:11.211 : en:Chapter 06
00:33:58.827 : en:Chapter 07
00:44:28.288 : en:Chapter 08
00:50:53.006 : en:Chapter 09
00:55:17.563 : en:Chapter 10
00:59:45.206 : en:Chapter 11
01:06:06.920 : en:Chapter 12
01:14:46.023 : en:Chapter 13
01:22:20.644 : en:Chapter 14
01:26:29.725 : en:Chapter 15
01:30:23.876 : en:Chapter 16
01:35:58.377 : en:Chapter 17
01:40:46.748 : en:Chapter 18
01:47:35.364 : en:Chapter 19
01:53:16.622 : en:Chapter 20
02:00:10.828 : en:Chapter 21
02:00:50.952 : en:Chapter 22
Source vs rip by zOJIOtOi
source

rip by zOJIOtOi
Скриншоты Релиз групп:
Скачать

Скачать торрент!

Как скачивать? · Что такое торрент? · Рейтинг и ограничения

Сайт не распространяет и не хранит электронные версии произведений, а лишь предоставляет доступ к создаваемому пользователями каталогу ссылок на торрент-файлы, которые содержат только списки хеш-сумм

[Профиль] [ЛС]
Показать сообщения:    
Ответить на тему

Текущее время: Сегодня 00:35

Часовой пояс: GMT + 4



Вы не можете начинать темы
Вы не можете отвечать на сообщения
Вы не можете редактировать свои сообщения
Вы не можете удалять свои сообщения
Вы не можете голосовать в опросах
Вы не можете прикреплять файлы к сообщениям
Вы не можете скачивать файлы