Жуткая любовь / Пугающий роман / Spellbound / Eerie Romance / Chilling Romance / O-ssak-han Yeon-ae (Хванг Ин Хо / In-ho Hwang) [2011, Южная Корея, комедия, мелодрама, мистика, HDRip] DVO + VO + original Kor + Sub (rus, eng)

Ответить на тему
 
Автор Сообщение

user ®

Стаж: 13 лет

Сообщений: 15071

Пост Пост: #1 от 01-Дек-2014 18:20

[Цитировать]

Жуткая любовь / Пугающий роман / Spellbound / Eerie Romance / Chilling Romance / O-ssak-han Yeon-ae- -Страна: Южная Корея
Жанр: комедия, мелодрама, мистика
Год выпуска: 2011
Продолжительность: 01:53:18-Перевод: Любительский (двухголосый закадровый) [GREEN TEA & КиНаТаН]
Перевод: Одноголосый закадровый [den904]-Cубтитры: русские (ASS), английские (SRT) - отдельно
Оригинальная аудиодорожка: корейский
Режиссер: Хванг Ин Хо / In-ho Hwang
В ролях: Сон Ё Чжин, Мин-ки Ли, Пак Хеол Мин, Ким Хён Сок, Юн Чжи Мин...
Описание: Йо Ри замкнутая и нелюдимая девушка, а все от того, что у нее есть дар… а может проклятие — с детства она может видеть призраков. Из-за этого с людьми, находящимся рядом с ней, происходят очень неприятные случаи. Самый обычный фокусник Чжо Го встречает ее на одном из своих выступлений и вместе они организуют волшебное шоу ужасов, которое имеет колоссальный успех. Вскоре, молодой человек влюбляется в девушку, да только ее призраки совсем от этого не в восторге…
Релиз от -
Сэмпл: http://multi-up.com/1016589
Качество видео: HDRip
Формат видео: AVI
Видео: MPEG-4 Visual at 2373 Кбит/сек; 704 x 384 (1.833) at 23.976 fps
Аудио: AC-3 at 448 Кбит/сек; 6 каналов, 48,0 КГц [DVO]
Аудио: AC-3 at 192 Кбит/сек; 2 канала, 48,0 КГц [VO]
Аудио: AC-3 at 448 Кбит/сек; 6 каналов, 48,0 КГц [Kor]
Автор -
MediaInfo
Общее
Полное имя : D:\Фильмы\Азиатские\Жуткая любовь\Spellbound.2011.HDRip.XviD.2900MB. rip by [Assassin's Creed]\Spellbound.2011.HDRip.XviD.2900MB. rip by [Assassin's Creed].avi
Формат : AVI
Формат/Информация : Audio Video Interleave
Профиль формата : OpenDML
Размер файла : 2,76 Гбайт
Продолжительность : 1 ч. 53 м.
Общий поток : 3482 Кбит/сек
Программа кодирования : VirtualDubMod 1.5.10.2 (build 2540/release)
Библиотека кодирования : VirtualDubMod build 2540/release
Видео
Идентификатор : 0
Формат : MPEG-4 Visual
Профиль формата : Advanced Simple@L5
Параметр BVOP формата : 1
Параметр QPel формата : Нет
Параметр GMC формата : Без точки перехода
Параметр матрицы формата : Default (MPEG)
Идентификатор кодека : XVID
Идентификатор кодека/Подсказка : XviD
Продолжительность : 1 ч. 53 м.
Битрейт : 2373 Кбит/сек
Ширина : 704 пикселя
Высота : 384 пикселя
Соотношение сторон : 1,85:1
Частота кадров : 23,976 кадра/сек
Цветовое пространство : YUV
Субдискретизация насыщенности : 4:2:0
Битовая глубина : 8 бит
Тип развёртки : Прогрессивная
Метод сжатия : С потерями
Бит/(Пиксели*Кадры) : 0.366
Размер потока : 1,88 Гбайт (68%)
Библиотека кодирования : XviD 1.2.1 (UTC 2008-12-04)
Аудио #1
Идентификатор : 1
Формат : AC-3
Формат/Информация : Audio Coding 3
Расширение режима : CM (complete main)
Параметр Endianness формата : Big
Идентификатор кодека : 2000
Продолжительность : 1 ч. 53 м.
Вид битрейта : Постоянный
Битрейт : 448 Кбит/сек
Каналы : 6 каналов
Расположение каналов : Front: L C R, Side: L R, LFE
Частота : 48,0 КГц
Битовая глубина : 16 бит
Метод сжатия : С потерями
Размер потока : 363 Мбайт (13%)
Выравнивание : Разделение по промежуткам
Продолжительность промежутка : 42 мс. (1,00 видеокадр)
Время предзагрузки промежутка : 500 мс.
Аудио #2
Идентификатор : 2
Формат : AC-3
Формат/Информация : Audio Coding 3
Расширение режима : CM (complete main)
Параметр Endianness формата : Big
Идентификатор кодека : 2000
Продолжительность : 1 ч. 53 м.
Вид битрейта : Постоянный
Битрейт : 192 Кбит/сек
Каналы : 2 канала
Расположение каналов : Front: L R
Частота : 48,0 КГц
Битовая глубина : 16 бит
Метод сжатия : С потерями
Размер потока : 156 Мбайт (6%)
Выравнивание : Разделение по промежуткам
Продолжительность промежутка : 42 мс. (1,00 видеокадр)
Время предзагрузки промежутка : 500 мс.
Аудио #3
Идентификатор : 3
Формат : AC-3
Формат/Информация : Audio Coding 3
Расширение режима : CM (complete main)
Параметр Endianness формата : Big
Идентификатор кодека : 2000
Продолжительность : 1 ч. 53 м.
Вид битрейта : Постоянный
Битрейт : 448 Кбит/сек
Каналы : 6 каналов
Расположение каналов : Front: L C R, Side: L R, LFE
Частота : 48,0 КГц
Битовая глубина : 16 бит
Метод сжатия : С потерями
Размер потока : 363 Мбайт (13%)
Выравнивание : Разделение по промежуткам
Продолжительность промежутка : 42 мс. (1,00 видеокадр)
Время предзагрузки промежутка : 500 мс.
Общее
Полное имя : D:\Фильмы\Азиатские\Жуткая любовь\Spellbound.2011.HDRip.XviD.2900MB. rip by [Assassin's Creed]\Spellbound.2011.HDRip.XviD.2900MB. rip by [Assassin's Creed].eng.srt
Формат : SubRip
Размер файла : 75,8 Кбайт
Текст
Формат : SubRip
Метод сжатия : Без потерь
Общее
Полное имя : D:\Фильмы\Азиатские\Жуткая любовь\Spellbound.2011.HDRip.XviD.2900MB. rip by [Assassin's Creed]\Spellbound.2011.HDRip.XviD.2900MB. rip by [Assassin's Creed].rus.ass
Размер файла : 128 Кбайт
Скриншот c названием фильма Скриншоты
Скачать

Скачать торрент! Жуткая любовь / Пугающий роман / Spellbound / Eerie Romance / Chilling Romance / O-ssak-han Yeon-ae (Хванг Ин Хо / In-ho Hwang) [2011, Южная Корея, комедия, мелодрама, мистика, HDRip] DVO + VO + original Kor + Sub (rus, eng)

Как скачивать? · Что такое торрент? · Рейтинг и ограничения

Сайт не распространяет и не хранит электронные версии произведений, а лишь предоставляет доступ к создаваемому пользователями каталогу ссылок на торрент-файлы, которые содержат только списки хеш-сумм

[Профиль] [ЛС]
Показать сообщения:    
Ответить на тему

Текущее время: Сегодня 17:11

Часовой пояс: GMT + 4



Вы не можете начинать темы
Вы не можете отвечать на сообщения
Вы не можете редактировать свои сообщения
Вы не можете удалять свои сообщения
Вы не можете голосовать в опросах
Вы не можете прикреплять файлы к сообщениям
Вы не можете скачивать файлы