На дне (Владимир Котт) [2014, Драма, SATRip]

Ответить на тему
 
Автор Сообщение

user ®

Стаж: 7 лет 7 месяцев

Сообщений: 20008

Пост Пост: #1 от 01-Дек-2014 18:20

[Цитировать]

На дне
Жанр: Драма
Год выпуска: 2014
Продолжительность: 02:07:07
Режиссёр: Владимир Котт
В ролях: Семен Трескунов, Михаил Ефремов, Сергей Сосновский, Олег Васильков, Агния Кузнецова, Евгения Добровольская, Борис Каморзин, Велимир Русаков, Юрий Кузнецов, Игорь Савочкин, Карэн Бадалов, Тамара Цыганова
Описание:«Modern adaptation of Maxim Gorky's famous play»Мировой кинематограф не раз обращался к сюжету об опустившихся обитателях ночлежки. Герои фильма Владимира Котта живут на самой настоящей свалке — они «ходят на разбор», откапывая в горах мусора ценный металл и вещи на продажу, воруют, пьют и бьют друг друга смертным боем… Однажды на свалке появляется подросток-беспризорник по имени Лука, который старается утешить этих опустившихся на дно жизни людей. Его появление среди давно очерствевших и несчастных обитателей свалки — Актёра, Василисы, Костылева и Наташи — внушает им надежду вырваться из замкнутого круга страдания и порока и вновь обрести достоинство. Они начинают всерьез верить в возможность начать все заново в другом, «нормальном» мире. Но люди слабы, и как бы сильно они ни мечтали, они не готовы меняться к лучшему…Сэмпл
Качество видео: SATRip
Формат видео: AVI
Видео: MPEG4, XviD, 720x448 (1.607), 25.000 fps, 1 800 Kbps (0.223 bit/pixel)
Аудио: Русский, MP3, 48.0 KHz, 2 ch, 128 Kbps, CBR
MediaInfo
Format : AVI
Format/Info : Audio Video Interleave
File size : 1.72 GiB
Duration : 2h 7mn
Overall bit rate : 1 938 Kbps
Writing application : VirtualDubMod 1.5.10.3 | www.virtualdub-fr.org || (build 2550/release)
Writing library : VirtualDub build 32507/release
Video
ID : 0
Format : MPEG-4 Visual
Format profile : Advanced Simple@L5
Format settings, BVOP : 2
Format settings, QPel : No
Format settings, GMC : No warppoints
Format settings, Matrix : Default (MPEG)
Codec ID : XVID
Codec ID/Hint : XviD
Duration : 2h 7mn
Bit rate : 1 800 Kbps
Width : 720 pixels
Height : 448 pixels
Display aspect ratio : 16:10
Frame rate : 25.000 fps
Color space : YUV
Chroma subsampling : 4:2:0
Bit depth : 8 bits
Scan type : Progressive
Compression mode : Lossy
Bits/(Pixel*Frame) : 0.223
Stream size : 1.60 GiB (93%)
Writing library : XviD 1.2.1 (UTC 2008-12-04)
Audio
ID : 1
Format : MPEG Audio
Format version : Version 1
Format profile : Layer 3
Mode : Joint stereo
Codec ID : 55
Codec ID/Hint : MP3
Duration : 2h 7mn
Bit rate mode : Constant
Bit rate : 128 Kbps
Channel(s) : 2 channels
Sampling rate : 48.0 KHz
Compression mode : Lossy
Stream size : 116 MiB (7%)
Alignment : Aligned on interleaves
Interleave, duration : 40 ms (1.00 video frame)
Interleave, preload duration : 504 ms
Writing library : LAME3.99r
Encoding settings : -m j -V 4 -q 2 -lowpass 17 -b 128
Скриншот c названием фильма Скриншоты
Скачать

Скачать торрент!

Как скачивать? · Что такое торрент? · Рейтинг и ограничения

Сайт не распространяет и не хранит электронные версии произведений, а лишь предоставляет доступ к создаваемому пользователями каталогу ссылок на торрент-файлы, которые содержат только списки хеш-сумм

[Профиль] [ЛС]
Показать сообщения:    
Ответить на тему

Текущее время: Сегодня 17:44

Часовой пояс: GMT + 4



Вы не можете начинать темы
Вы не можете отвечать на сообщения
Вы не можете редактировать свои сообщения
Вы не можете удалять свои сообщения
Вы не можете голосовать в опросах
Вы не можете прикреплять файлы к сообщениям
Вы не можете скачивать файлы