Крысы / Смертельные глаза / Deadly Eyes / The Rats (Роберт Клоуз / Robert Clouse) [1982, Канада, ужасы, фантастика, BDRemux 1080p] 4x AVO (Гаврилов, Горчаков, Товбин, Готлиб) + original (eng) + sub (eng)

Ответить на тему
 
Автор Сообщение

user ®

Стаж: 7 лет 7 месяцев

Сообщений: 20008

Пост Пост: #1 от 01-Дек-2014 01:05

[Цитировать]

Смертельные глаза / Deadly Eyes
Год выпуска: 1982
Страна: Канада
Жанр: ужасы, фантастика
Продолжительность: 01:27:16
Перевод1: Авторский (одноголосый, закадровый)(А.Гаврилов)
Перевод2: Авторский (одноголосый, закадровый)(В.Горчаков)
Перевод3: Авторский (одноголосый, закадровый)(Ю.Товбин)
Перевод4: Авторский (одноголосый, закадровый)(А.Готлиб)
Субтитры: английские
Оригинальная аудиодорожка: английский
Режиссер: Роберт Клоуз / Robert Clouse
В ролях: Сэм Грум/Sam Groom/, Сэра Ботсфорд/Sara Botsford/, Скэтман Крозерс /Scatman Crothers
Описание: Зерно, выращенное при помощи стероидов, становится причиной появления огромных крыс-мутантов. Милые зверьки начинают постепенно переходить на питание жильцами прекрасного города Торонто. Тренер по баскетболу местного колледжа объединяется с местной инспектриссой министерства здравоохранения, чтобы раскрыть источник таинственных нападений крыс. Они приходят к выводу о необходимости не допустить открытия новой линии метро, так как именно там находится гнездо крыс-мутантов. В противном случае в городе наступит армагеддон.

Качество: BDRemux 1080p
Формат: MKV
Видео кодек: H.264
Аудио кодек: AC3, FLAC
Видео: 1920 x 1080 / MPEG-4 AVC Video / 34449 kbps / 1080p / 23,976 fps / 16:9 / High Profile 4.1
Аудио1: Русский, AC3 2.0 192 Kbps 48,0 КГц(Gavrilov)
Аудио2: Русский, AC3 2.0 192 Kbps 48,0 КГц(Gorchakov)
Аудио3: Русский, AC3 2.0 192 Kbps 48,0 КГц(Tovbin)
Аудио4: Русский, AC3 2.0 192 Kbps 48,0 КГц(Gotlib)
Аудио5: English, FLAC 2.0 ~1225 Kbps 48,0 КГц(Original)
Субтитры: Softsub (SRT)
Главы
MediaInfo
Общее
Уникальный идентификатор : 170783256449940587217828492811364109050 (0x807BA8A4799EAB65A9001AA4F8F68AFA)
Полное имя : D:\Deadly.Eyes.1982.BDRemux.1080p.4xRus.Eng.mkv
Формат : Matroska
Версия формата : Version 4 / Version 2
Размер файла : 22,2 Гбайт
Продолжительность : 1 ч. 27 м.
Режим общего битрейта : Переменный
Общий поток : 36,4 Мбит/сек
Название фильма : Deadly Eyes
Дата кодирования : UTC 2014-11-29 07:36:19
Программа кодирования : mkvmerge v6.5.0 ('Isn't she lovely') built on Oct 20 2013 12:50:05
Библиотека кодирования : libebml v1.3.0 + libmatroska v1.4.1
Видео
Идентификатор : 1
Формат : AVC
Формат/Информация : Advanced Video Codec
Профиль формата : High@L4.1
Параметр CABAC формата : Да
Параметр ReFrames формата : 2 кадра
Параметр GOP формата : M=1, N=5
Идентификатор кодека : V_MPEG4/ISO/AVC
Продолжительность : 1 ч. 27 м.
Вид битрейта : Переменный
Максимальный битрейт : 38,2 Мбит/сек
Ширина : 1920 пикселей
Высота : 1080 пикселей
Соотношение сторон : 16:9
Режим частоты кадров : Постоянный
Частота кадров : 23,976 кадра/сек
Цветовое пространство : YUV
Субдискретизация насыщенности : 4:2:0
Битовая глубина : 8 бит
Тип развёртки : Прогрессивная
Заголовок : Deadly Eyes 1982
Default : Нет
Forced : Нет
Аудио #1
Идентификатор : 2
Формат : AC-3
Формат/Информация : Audio Coding 3
Расширение режима : CM (complete main)
Параметр Endianness формата : Big
Идентификатор кодека : A_AC3
Продолжительность : 1 ч. 27 м.
Вид битрейта : Постоянный
Битрейт : 192 Кбит/сек
Каналы : 2 канала
Расположение каналов : Front: L R
Частота : 48,0 КГц
Битовая глубина : 16 бит
Метод сжатия : С потерями
Размер потока : 120 Мбайт (1%)
Заголовок : Gavrilov AC3 2.0 192 kbps
Язык : Russian
Default : Нет
Forced : Нет
Аудио #2
Идентификатор : 3
Формат : AC-3
Формат/Информация : Audio Coding 3
Расширение режима : CM (complete main)
Параметр Endianness формата : Big
Идентификатор кодека : A_AC3
Продолжительность : 1 ч. 27 м.
Вид битрейта : Постоянный
Битрейт : 192 Кбит/сек
Каналы : 2 канала
Расположение каналов : Front: L R
Частота : 48,0 КГц
Битовая глубина : 16 бит
Метод сжатия : С потерями
Размер потока : 120 Мбайт (1%)
Заголовок : Gorchakov AC3 2.0 192 kbps
Язык : Russian
Default : Нет
Forced : Нет
Аудио #3
Идентификатор : 4
Формат : AC-3
Формат/Информация : Audio Coding 3
Расширение режима : CM (complete main)
Параметр Endianness формата : Big
Идентификатор кодека : A_AC3
Продолжительность : 1 ч. 27 м.
Вид битрейта : Постоянный
Битрейт : 192 Кбит/сек
Каналы : 2 канала
Расположение каналов : Front: L R
Частота : 48,0 КГц
Битовая глубина : 16 бит
Метод сжатия : С потерями
Размер потока : 120 Мбайт (1%)
Заголовок : Tovbin AC3 2.0 192 kbps
Язык : Russian
Default : Нет
Forced : Нет
Аудио #4
Идентификатор : 5
Формат : AC-3
Формат/Информация : Audio Coding 3
Расширение режима : CM (complete main)
Параметр Endianness формата : Big
Идентификатор кодека : A_AC3
Продолжительность : 1 ч. 27 м.
Вид битрейта : Постоянный
Битрейт : 192 Кбит/сек
Каналы : 2 канала
Расположение каналов : Front: L R
Частота : 48,0 КГц
Битовая глубина : 16 бит
Метод сжатия : С потерями
Размер потока : 120 Мбайт (1%)
Заголовок : Gotlib AC3 2.0 192 kbps
Язык : Russian
Default : Нет
Forced : Нет
Аудио #5
Идентификатор : 6
Формат : FLAC
Формат/Информация : Free Lossless Audio Codec
Идентификатор кодека : A_FLAC
Продолжительность : 1 ч. 27 м.
Вид битрейта : Переменный
Каналы : 2 канала
Частота : 48,0 КГц
Битовая глубина : 24 бит
Заголовок : Original FLAC 2.0 ~1225 kbps
Библиотека кодирования : libFLAC 1.2.1 (UTC 2007-09-17)
Язык : English
Default : Нет
Forced : Нет
Текст
Идентификатор : 7
Формат : UTF-8
Идентификатор кодека : S_TEXT/UTF8
Идентификатор кодека/Информация : UTF-8 Plain Text
Язык : English
Default : Нет
Forced : Нет
Меню
00:00:00.000 : en:00:00:00.000
00:03:23.745 : en:00:03:23.745
00:07:43.505 : en:00:07:43.505
00:16:07.675 : en:00:16:07.675
00:22:12.331 : en:00:22:12.331
00:28:34.254 : en:00:28:34.254
00:36:35.026 : en:00:36:35.026
00:43:46.332 : en:00:43:46.332
00:55:20.901 : en:00:55:20.901
01:01:45.535 : en:01:01:45.535
01:08:40.700 : en:01:08:40.700
01:18:37.713 : en:01:18:37.713
Сэмпл Скриншоты
Скачать

Скачать торрент!

Как скачивать? · Что такое торрент? · Рейтинг и ограничения

Сайт не распространяет и не хранит электронные версии произведений, а лишь предоставляет доступ к создаваемому пользователями каталогу ссылок на торрент-файлы, которые содержат только списки хеш-сумм

[Профиль] [ЛС]
Показать сообщения:    
Ответить на тему

Текущее время: Сегодня 17:26

Часовой пояс: GMT + 4



Вы не можете начинать темы
Вы не можете отвечать на сообщения
Вы не можете редактировать свои сообщения
Вы не можете удалять свои сообщения
Вы не можете голосовать в опросах
Вы не можете прикреплять файлы к сообщениям
Вы не можете скачивать файлы