Бегущий в лабиринте / The Maze Runner (Уэс Болл /Wes Ball) [2014, США, фантастика, триллер, приключения HDRip] Dub (Чистый звук)

Ответить на тему
 
Автор Сообщение

user ®

Стаж: 7 лет 7 месяцев

Сообщений: 20008

Пост Пост: #1 от 01-Дек-2014 01:05

[Цитировать]

Бегущий в лабиринте / The Maze Runner«Только не останавливайся»- Страна: США, 20th Century Fox, Gotham Group, Temple Hill Entertainment
Жанр: фантастика, триллер, приключения
Год выпуска: 2014
Продолжительность: 1:53:27
Перевод: Профессиональный (дублированный) [Чистый звук]
Cубтитры: нет-Режиссер: Уэс Болл /Wes Ball-В ролях: Дилан О’Брайэн, Кая Скоделарио, Уилл Поултер, Томас Сэнгстер, Патришия Кларксон, Ки Хонг Ли, Амл Амин, Блейк Купер, Крис Шеффилд, Карл Грин-Описание: Главный герой — подросток Томас, который просыпается в лифте, но ничего не помнит, кроме своего имени. Он оказывается среди 60 подростков, научившихся выживать в замкнутом пространстве. Раз в 30 дней прибывает новый мальчик. Группа ребят проживает в «Приюте» уже два года. Они кормятся тем, что удается вырастить на земле, и пытаются найти выход из лабиринта, окружающего их место жительства. Но однажды появляется девочка в состоянии комы…-| IMDB | КиноПоиск | Сэмпл|-Качество видео: HDRip [Рип с BDRip 720p]
Формат видео: AVI
Видео: Xvid 720x304 23.976fps 1805kbps
Аудио 1: Dolby AC3 48000Hz 6ch 384kbps ENG [Оригинал]

Аудио 2: Dolby AC3 48000Hz stereo 384kbps RUS [Чистый звук]-Премьера (мир) 11 сентября 2014, ...
Премьера (РФ) 18 сентября 2014, «Двадцатый Век Фокс СНГ»
Релиз на Blu-Ray 18 декабря 2014, «Двадцатый Век Фокс СНГ»
Релиз на DVD 18 декабря 2014, «Двадцатый Век Фокс СНГ»
-MediaInfo
General
Complete name : D:\FILMS\Maze.2104.Rip.2100MB.avi
Format : AVI
Format/Info : Audio Video Interleave
Format profile : OpenDML
File size : 2.05 GiB
Duration : 1h 53mn
Overall bit rate : 2 592 Kbps
Writing application : VirtualDubMod 1.5.10.2 (build 2540/release)
Writing library : VirtualDubMod build 2540/release
Video
ID : 0
Format : MPEG-4 Visual
Format profile : Advanced Simple@L5
Format settings, BVOP : 2
Format settings, QPel : No
Format settings, GMC : No warppoints
Format settings, Matrix : Default (MPEG)
Codec ID : XVID
Codec ID/Hint : XviD
Duration : 1h 53mn
Bit rate : 1 806 Kbps
Width : 720 pixels
Height : 304 pixels
Display aspect ratio : 2.35:1
Frame rate : 23.976 fps
Color space : YUV
Chroma subsampling : 4:2:0
Bit depth : 8 bits
Scan type : Progressive
Compression mode : Lossy
Bits/(Pixel*Frame) : 0.344
Stream size : 1.43 GiB (70%)
Writing library : XviD 1.2.1 (UTC 2008-12-04)
Audio #1
ID : 1
Format : AC-3
Format/Info : Audio Coding 3
Mode extension : CM (complete main)
Format settings, Endianness : Big
Codec ID : 2000
Duration : 1h 53mn
Bit rate mode : Constant
Bit rate : 384 Kbps
Channel(s) : 2 channels
Channel positions : Front: L R
Sampling rate : 48.0 KHz
Bit depth : 16 bits
Compression mode : Lossy
Stream size : 312 MiB (15%)
Alignment : Split accross interleaves
Interleave, duration : 42 ms (1.00 video frame)
Interleave, preload duration : 500 ms
Audio #2
ID : 2
Format : AC-3
Format/Info : Audio Coding 3
Mode extension : CM (complete main)
Format settings, Endianness : Big
Codec ID : 2000
Duration : 1h 53mn
Bit rate mode : Constant
Bit rate : 384 Kbps
Channel(s) : 6 channels
Channel positions : Front: L C R, Side: L R, LFE
Sampling rate : 48.0 KHz
Bit depth : 16 bits
Compression mode : Lossy
Stream size : 312 MiB (15%)
Alignment : Split accross interleaves
Interleave, duration : 42 ms (1.00 video frame)
Interleave, preload duration : 500 ms
Скриншот c названием фильма Скриншоты
Скачать

Скачать торрент!

Как скачивать? · Что такое торрент? · Рейтинг и ограничения

Сайт не распространяет и не хранит электронные версии произведений, а лишь предоставляет доступ к создаваемому пользователями каталогу ссылок на торрент-файлы, которые содержат только списки хеш-сумм

[Профиль] [ЛС]
Показать сообщения:    
Ответить на тему

Текущее время: Сегодня 11:40

Часовой пояс: GMT + 4



Вы не можете начинать темы
Вы не можете отвечать на сообщения
Вы не можете редактировать свои сообщения
Вы не можете удалять свои сообщения
Вы не можете голосовать в опросах
Вы не можете прикреплять файлы к сообщениям
Вы не можете скачивать файлы