Заезжий молодец (Кира Ангелина) [2014, Мелодрама, HDTVRip]

Ответить на тему
 
Автор Сообщение

user ®

Стаж: 7 лет 7 месяцев

Сообщений: 20008

Пост Пост: #1 от 30-Ноя-2014 21:55

[Цитировать]

Заезжий молодец Жанр: Мелодрама
Год выпуска: 2014
Продолжительность: 01:30:08
Режиссёр: Кира Ангелина
В ролях: Мария Куликова, Александр Усердин, Алексей Зубков, Артур Псакин, Наталия Просветова, Диана Енакаева, Татьяна Шатилова
Описание: Лариса – сильная женщина, которая давно привыкла сама справляться с любыми проблемами. Она в одиночку воспитывает непростого сына-подростка, тяжёлым трудом зарабатывает на жизнь, и давно отчаялась обрести личное счастье.Соседка Ларисы, желая завладеть её домом, сводит героиню со своим племянником Олегом, недалеким солдафоном. Устав от бесконечного одиночества, Лариса пытается построить с ним отношения, но сговор вскоре раскрывается...Неожиданно Лариса становится свидетельницей того, как полиция задерживает на улице мужчину без документов. Проникнувшись к незнакомцу, героиня помогает ему освободиться и платит за него штраф. На следующий день спасённый появляется у неё дома, но вовсе не затем, чтобы отдать долг – он просит Ларису о ночлеге. В гневе героиня прогоняет его, но дальнейшие события в корне меняют отношение женщины к этому человеку, так странно появившемуся в её жизни...
Доп. информация:
Рип от:
Сэмпл: http://multi-up.com/1016502
Качество видео: HDTVRip
Формат видео: AVI
Видео: 624x352 (1.77:1), 25 fps, XviD build 73 ~1018 kbps avg, 0.19 bit/pixel
Аудио: 48 kHz, MPEG Layer 3, 2 ch, ~128.00 kbps avg
MediaInfo
Общее
Полное имя : D:ТоррентМои рипыЗаезжий молодецZaezzhiy.molodets.2014.by Шкипер.HDTVRip.avi
Формат : AVI
Формат/Информация : Audio Video Interleave
Размер файла : 746 Мбайт
Продолжительность : 1 ч. 30 м.
Общий поток : 1157 Кбит/сек
Программа кодирования : VirtualDubMod 1.5.10.3 | www.virtualdub-fr.org || (build 2550/release)
Библиотека кодирования : VirtualDubMod build 2550/release
Видео
Идентификатор : 0
Формат : MPEG-4 Visual
Профиль формата : Advanced Simple@L5
Параметр BVOP формата : 1
Параметр QPel формата : Нет
Параметр GMC формата : Без точки перехода
Параметр матрицы формата : Default (MPEG)
Идентификатор кодека : XVID
Идентификатор кодека/Подсказка : XviD
Продолжительность : 1 ч. 30 м.
Битрейт : 1019 Кбит/сек
Ширина : 624 пикселя
Высота : 352 пикселя
Соотношение сторон : 16:9
Частота кадров : 25,000 кадров/сек
Цветовое пространство : YUV
Субдискретизация насыщенности : 4:2:0
Битовая глубина : 8 бит
Тип развёртки : Прогрессивная
Метод сжатия : С потерями
Бит/(Пиксели*Кадры) : 0.186
Размер потока : 657 Мбайт (88%)
Библиотека кодирования : XviD 73
Аудио
Идентификатор : 1
Формат : MPEG Audio
Версия формата : Version 1
Профиль формата : Layer 3
Режим : Joint stereo
Расширение режима : MS Stereo
Идентификатор кодека : 55
Идентификатор кодека/Подсказка : MP3
Продолжительность : 1 ч. 30 м.
Вид битрейта : Постоянный
Битрейт : 128 Кбит/сек
Каналы : 2 канала
Частота : 48,0 КГц
Метод сжатия : С потерями
Размер потока : 82,5 Мбайт (11%)
Выравнивание : Соединение по промежуткам
Продолжительность промежутка : 40 мс. (1,00 видеокадр)
Время предзагрузки промежутка : 504 мс.
Библиотека кодирования : LAME3.99r
Настройки программы : -m j -V 4 -q 2 -lowpass 17 -b 128
Скриншот c названием фильма Скриншоты
Скачать

Скачать торрент!

Как скачивать? · Что такое торрент? · Рейтинг и ограничения

Сайт не распространяет и не хранит электронные версии произведений, а лишь предоставляет доступ к создаваемому пользователями каталогу ссылок на торрент-файлы, которые содержат только списки хеш-сумм

[Профиль] [ЛС]
Показать сообщения:    
Ответить на тему

Текущее время: Сегодня 06:01

Часовой пояс: GMT + 4



Вы не можете начинать темы
Вы не можете отвечать на сообщения
Вы не можете редактировать свои сообщения
Вы не можете удалять свои сообщения
Вы не можете голосовать в опросах
Вы не можете прикреплять файлы к сообщениям
Вы не можете скачивать файлы