Правила жизни французского парня / Libre et assoupi (Бенжамин Гуеди / Benjamin Guedj) [2014, Франция, комедия, HDRip] MVO (Line)

Ответить на тему
 
Автор Сообщение

user ®

Стаж: 7 лет 7 месяцев

Сообщений: 20008

Пост Пост: #1 от 30-Ноя-2014 21:55

[Цитировать]

Правила жизни французского парня / Libre et assoupi
Страна: Франция
Жанр: комедия
Год выпуска: 2014
Продолжительность: 01:30:46
Перевод: Профессиональный (многоголосый закадровый) Line
Cубтитры: нет
Режиссер: Бенжамин Гуеди / Benjamin Guedj
В ролях: Баптист Лекаплен, Шарлотта Ле Бон, Феликс Моати, Дени Подалидес, Изабель Канделье, Жан-Ив Бертело, Сулиан Брахим, Давид Байот, Лу Шовен, Бенжамин Лаверн
Описание: Любимое занятие Себастьяна, на первый взгляд — ничегонеделание. Его диван для него целый мир. C него он и предпочитает наблюдать за своими друзьями по квартире: красивой независимой Анной и не совсем решительным Бруно. Лежа на диване, Себастьян черпает жизненный опыт из книг и видеоигр. Не выходя из квартиры, он предается самым незаурядным мечтам и фантазиям. Себастьян умеет получать удовольствие от простых вещей — в этом его главная заслуга, но в этом же и его проблема. Но в какой-то момент он начинает действовать… немного и по-своему.

Качество видео: HDRip
Формат видео: AVI
Видео: 720x304 (2.37:1), 23.976 fps, XviD build 50 ~1949 kbps avg, 0.37 bit/pixel
Аудио: 48 kHz, AC3 Dolby Digital, 2/0 (L,R) ch, ~192 kbps
MediaInfo
Формат : AVI
Формат/Информация : Audio Video Interleave
Размер файла : 1,36 Гбайт
Продолжительность : 1 ч. 30 м.
Общий поток : 2151 Кбит/сек
Название фильма : L
Режиссёр : k
Программа кодирования : V
Правообладатель : u
Видео
Идентификатор : 0
Формат : MPEG-4 Visual
Профиль формата : Advanced Simple@L5
Параметр BVOP формата : 2
Параметр QPel формата : Нет
Параметр GMC формата : Без точки перехода
Параметр матрицы формата : Выборочная
Идентификатор кодека : XVID
Идентификатор кодека/Подсказка : XviD
Продолжительность : 1 ч. 30 м.
Битрейт : 1949 Кбит/сек
Ширина : 720 пикселей
Высота : 304 пикселя
Соотношение сторон : 2,35:1
Частота кадров : 23,976 кадра/сек
Цветовое пространство : YUV
Субдискретизация насыщенности : 4:2:0
Битовая глубина : 8 бит
Тип развёртки : Прогрессивная
Метод сжатия : С потерями
Бит/(Пиксели*Кадры) : 0.371
Размер потока : 1,24 Гбайт (91%)
Библиотека кодирования : XviD 1.2.1 (UTC 2008-12-04)
Аудио
Идентификатор : 1
Формат : AC-3
Формат/Информация : Audio Coding 3
Расширение режима : CM (complete main)
Параметр Endianness формата : Big
Идентификатор кодека : 2000
Продолжительность : 1 ч. 30 м.
Вид битрейта : Постоянный
Битрейт : 192 Кбит/сек
Каналы : 2 канала
Расположение каналов : Front: L R
Частота : 48,0 КГц
Битовая глубина : 16 бит
Метод сжатия : С потерями
Размер потока : 125 Мбайт (9%)
Выравнивание : Разделение по промежуткам
Продолжительность промежутка : 42 мс. (1,00 видеокадр)
Время предзагрузки промежутка : 500 мс.
Скриншоты
Скачать

Скачать торрент!

Как скачивать? · Что такое торрент? · Рейтинг и ограничения

Сайт не распространяет и не хранит электронные версии произведений, а лишь предоставляет доступ к создаваемому пользователями каталогу ссылок на торрент-файлы, которые содержат только списки хеш-сумм

[Профиль] [ЛС]
Показать сообщения:    
Ответить на тему

Текущее время: Сегодня 14:34

Часовой пояс: GMT + 4



Вы не можете начинать темы
Вы не можете отвечать на сообщения
Вы не можете редактировать свои сообщения
Вы не можете удалять свои сообщения
Вы не можете голосовать в опросах
Вы не можете прикреплять файлы к сообщениям
Вы не можете скачивать файлы