Ищу попутчика (Кира Ангелина) [2014, Романтика, лирическая комедия, HDTVRip]

Ответить на тему
 
Автор Сообщение

user ®

Стаж: 7 лет 7 месяцев

Сообщений: 20008

Пост Пост: #1 от 30-Ноя-2014 18:45

[Цитировать]

Ищу попутчика Жанр: Романтика, лирическая комедия
Год выпуска: 2014
Продолжительность: 01:28:55
Режиссёр: Денис Елеонский
В ролях: Людмила Свитова, Елена Симонова, Василий Кортуков, Андрей Аверков, Александр Нестеров (III), Татьяна Ткач, Виктор Костецкий, Полина Воробьева, Наталья Высочанская, Денис Елеонский, Егор Кутенков, Вячеслав Коробицин, Хельга Филиппова, Илья Разин, Виктор Санков, Антон Новиков
Описание: У Василисы Кулебяки из небольшого старинного русского городка в один день рушится всё – работа, мечты, личная жизнь… Соседка подсказывает ей проверенный способ пережить потрясение – отправиться в Петербург в период Белых ночей. Василиса через интернет находит попутчицу, чтобы вместе поделить расходы на проживание в мини-гостинице. В результате путаницы её соседка из Москвы оказывается… соседом. Да ещё с характером, который Василиса на дух не переносит. Но это только начало сюрпризов, которые ждут Василису в период Белых ночей…
Семпл: http://multi-up.com/1016390
Источник видео: HDTV1080i
Качество видео: HDTVRip
Формат видео: AVI
Видео: 720x400 (1.80:1), 25 fps, XviD build 50 ~1800 kbps avg, 0.22 bit/pixel
Аудио: 48 kHz, AC3 Dolby Digital, 2/0 (L,R) ch, ~192.00 kbps avg
MI
General
Complete name : Y:\раздачи\Ищу.попутчика.2014.HDTVRip.Files-x.avi
Format : AVI
Format/Info : Audio Video Interleave
File size : 1.37 GiB
Duration : 1h 29mn
Overall bit rate : 2 189 Kbps
Writing application : VirtualDubMod 1.5.10.3 | www.virtualdub-fr.org || (build 2550/release)
Writing library : VirtualDubMod build 2550/release
Video
ID : 0
Format : MPEG-4 Visual
Format profile : Advanced Simple@L5
Format settings, BVOP : 2
Format settings, QPel : No
Format settings, GMC : No warppoints
Format settings, Matrix : Custom
Codec ID : XVID
Codec ID/Hint : XviD
Duration : 1h 29mn
Bit rate : 1 987 Kbps
Width : 720 pixels
Height : 400 pixels
Display aspect ratio : 16:9
Frame rate : 25.000 fps
Color space : YUV
Chroma subsampling : 4:2:0
Bit depth : 8 bits
Scan type : Progressive
Compression mode : Lossy
Bits/(Pixel*Frame) : 0.276
Stream size : 1.24 GiB (91%)
Writing library : XviD 73
Audio
ID : 1
Format : AC-3
Format/Info : Audio Coding 3
Mode extension : CM (complete main)
Format settings, Endianness : Big
Codec ID : 2000
Duration : 1h 29mn
Bit rate mode : Constant
Bit rate : 192 Kbps
Channel(s) : 2 channels
Channel positions : Front: L R
Sampling rate : 48.0 KHz
Bit depth : 16 bits
Compression mode : Lossy
Stream size : 123 MiB (9%)
Alignment : Split accross interleaves
Interleave, duration : 40 ms (1.00 video frame)
Interleave, preload duration : 500 ms
Скриншот с названием Скриншоты Сравнение
http://screenshotcomparison.com/comparison/102225/picture:2 с [url=http://***/forum/viewtopic.php?t=4876284]http://***/forum/viewtopic.php?t=4876284[/url]
Доп. информация: Релиз группа
Скачать

Скачать торрент!

Как скачивать? · Что такое торрент? · Рейтинг и ограничения

Сайт не распространяет и не хранит электронные версии произведений, а лишь предоставляет доступ к создаваемому пользователями каталогу ссылок на торрент-файлы, которые содержат только списки хеш-сумм

[Профиль] [ЛС]
Показать сообщения:    
Ответить на тему

Текущее время: Сегодня 23:45

Часовой пояс: GMT + 4



Вы не можете начинать темы
Вы не можете отвечать на сообщения
Вы не можете редактировать свои сообщения
Вы не можете удалять свои сообщения
Вы не можете голосовать в опросах
Вы не можете прикреплять файлы к сообщениям
Вы не можете скачивать файлы