Звёзды светят всем (Александр Кананович) [2014, Мелодрама, драма, HDTVRip]

Ответить на тему
 
Автор Сообщение

user ®

Стаж: 7 лет 7 месяцев

Сообщений: 20008

Пост Пост: #1 от 30-Ноя-2014 18:45

[Цитировать]

Звёзды светят всем
Жанр: Мелодрама, драма
Год выпуска: 2014
Продолжительность: 01:39:06
Режиссёр: Александр Кананович
В ролях: Яна Шивкова (Николаева), Алексей Шутов, Андрей Карако, Александр Цуркан, Марина Москвина, Илья Капанец, Руслан Чернецкий, Олеся Пуховая
Описание: Маша — молодая, красивая и богатая. Она замужем за Игорем, владельцем солидного банка. В семье растет сын Костик. Одним словом, жизнь удалась. Но все меняется в одночасье, когда муж Игорь попадает в тюрьму за махинации. Кроме того, выясняется, что у него была любовница, которая и «сдала» Игоря правоохранительным органам… Не в силах простить мужу измену, Маша подает на развод. Все имущество семьи конфискуют. Маша вынуждена вернуться в свой родной городок, где осталась родительская «двушка». Только выясняется, что тетка Маши сдала квартиру ее бывшему однокласснику, автослесарю Петру, с которым у Маши когда-то был роман, и которого она бросила ради возможностей столицы. Петр — человек, которого Маше хочется видеть меньше всего, но приходится жить с ним под одной крышей. Похоже, что у судьбы на Машу и Петра есть особые планы.

Качество видео: HDTVRip [HDTVRip [Исходник: HDTV (1080i)]
Формат видео: AVI
Видео: XviD, 656x368 (16:9), 915 Кбит/с, 25 кадр/с
Аудио: Русский, MP3, 48000 Гц, 128 Кбит/с, 2 канала (Стерео)

Автор рипа - ivandubskoj
MediaInfo
General
Complete name : Zvezdy.svetyat.vsem.2014.HDTVRip.745MB.avi
Format : AVI
Format/Info : Audio Video Interleave
File size : 746 MiB
Duration : 1h 39mn
Overall bit rate : 1 052 Kbps
Writing application : VirtualDubMod 1.5.10.3 (build 2550/release)
Writing library : VirtualDubMod build 2550/release
Copyright : rip by ivandubskoj
Video
ID : 0
Format : MPEG-4 Visual
Format profile : Advanced Simple@L5
Format settings, BVOP : 2
Format settings, QPel : No
Format settings, GMC : No warppoints
Format settings, Matrix : Custom
Codec ID : XVID
Codec ID/Hint : XviD
Duration : 1h 39mn
Bit rate : 915 Kbps
Width : 656 pixels
Height : 368 pixels
Display aspect ratio : 16:9
Frame rate : 25.000 fps
Color space : YUV
Chroma subsampling : 4:2:0
Bit depth : 8 bits
Scan type : Progressive
Compression mode : Lossy
Bits/(Pixel*Frame) : 0.152
Stream size : 648 MiB (87%)
Writing library : XviD 73
Audio
ID : 1
Format : MPEG Audio
Format version : Version 1
Format profile : Layer 3
Codec ID : 55
Codec ID/Hint : MP3
Duration : 1h 39mn
Bit rate mode : Constant
Bit rate : 128 Kbps
Channel(s) : 2 channels
Sampling rate : 48.0 KHz
Compression mode : Lossy
Stream size : 90.7 MiB (12%)
Alignment : Aligned on interleaves
Interleave, duration : 40 ms (1.00 video frame)
Interleave, preload duration : 504 ms
Writing library : LAME3.99r
Encoding settings : -m s -V 4 -q 0 -lowpass 17 -b 128
Скриншот c названием фильма Скриншоты
Скачать

Скачать торрент!

Как скачивать? · Что такое торрент? · Рейтинг и ограничения

Сайт не распространяет и не хранит электронные версии произведений, а лишь предоставляет доступ к создаваемому пользователями каталогу ссылок на торрент-файлы, которые содержат только списки хеш-сумм

[Профиль] [ЛС]
Показать сообщения:    
Ответить на тему

Текущее время: Сегодня 12:48

Часовой пояс: GMT + 4



Вы не можете начинать темы
Вы не можете отвечать на сообщения
Вы не можете редактировать свои сообщения
Вы не можете удалять свои сообщения
Вы не можете голосовать в опросах
Вы не можете прикреплять файлы к сообщениям
Вы не можете скачивать файлы