Звезды светят всем (Александр Кананович) [2014, Мелодрама, драма, HDTVRip]

Ответить на тему
 
Автор Сообщение

user ®

Стаж: 7 лет 7 месяцев

Сообщений: 20008

Пост Пост: #1 от 30-Ноя-2014 09:55

[Цитировать]

Звезды светят всем
Жанр: Мелодрама, драма
Год выпуска: 2014
Продолжительность: 01:39:06
Режиссёр: Александр Кананович
В ролях: Яна Шивкова (Николаева), Алексей Шутов, Андрей Карако, Александр Цуркан, Марина Москвина, Илья Капанец, Руслан Чернецкий, Олеся Пуховая
Описание: Маша — молодая, красивая и богатая. Она замужем за Игорем, владельцем солидного банка. В семье растет сын Костик. Одним словом, жизнь удалась. Но все меняется в одночасье, когда муж Игорь попадает в тюрьму за махинации. Кроме того, выясняется, что у него была любовница, которая и «сдала» Игоря правоохранительным органам… Не в силах простить мужу измену, Маша подает на развод. Все имущество семьи конфискуют. Маша вынуждена вернуться в свой родной городок, где осталась родительская «двушка». Только выясняется, что тетка Маши сдала квартиру ее бывшему однокласснику, автослесарю Петру, с которым у Маши когда-то был роман, и которого она бросила ради возможностей столицы. Петр — человек, которого Маше хочется видеть меньше всего, но приходится жить с ним под одной крышей. Похоже, что у судьбы на Машу и Петра есть особые планы.
Качество видео: HDTVRip [Исходник: HDTV (1080i)]
Формат видео: AVI
Видео: XviD, 720x400 (16:9), 1906 Кбит/с, 25 кадр/с
Аудио: Русский, Dolby AC3, 48000 Гц, 192 Кбит/с, 2 канала (Стерео)

Автор рипа - ivandubskoj
MediaInfo
General
Complete name : Zvezdy.svetyat.vsem.2014.HDTVRip.avi
Format : AVI
Format/Info : Audio Video Interleave
File size : 1.46 GiB
Duration : 1h 39mn
Overall bit rate : 2 106 Kbps
Movie name : Звёзды светят всем (2014) HDTVRip
Genre : Мелодрама, драма
Recorded date : 30.11.2014
Writing application : VirtualDubMod 1.5.10.3 (build 2550/release)
Writing library : VirtualDubMod build 2550/release
Video
ID : 0
Format : MPEG-4 Visual
Format profile : Advanced Simple@L5
Format settings, BVOP : 1
Format settings, QPel : No
Format settings, GMC : No warppoints
Format settings, Matrix : Custom
Codec ID : XVID
Codec ID/Hint : XviD
Duration : 1h 39mn
Bit rate : 1 906 Kbps
Width : 720 pixels
Height : 400 pixels
Display aspect ratio : 16:9
Frame rate : 25.000 fps
Color space : YUV
Chroma subsampling : 4:2:0
Bit depth : 8 bits
Scan type : Progressive
Compression mode : Lossy
Bits/(Pixel*Frame) : 0.265
Stream size : 1.32 GiB (91%)
Writing library : XviD 73
Audio
ID : 1
Format : AC-3
Format/Info : Audio Coding 3
Mode extension : CM (complete main)
Codec ID : 2000
Duration : 1h 39mn
Bit rate mode : Constant
Bit rate : 192 Kbps
Channel(s) : 2 channels
Channel positions : Front: L R
Sampling rate : 48.0 KHz
Bit depth : 16 bits
Compression mode : Lossy
Stream size : 136 MiB (9%)
Alignment : Split accross interleaves
Interleave, duration : 64 ms (1.60 video frames)
Interleave, preload duration : 500 ms
Title : Russian
Скриншот c названием фильма Скриншоты
Скачать

Скачать торрент!

Как скачивать? · Что такое торрент? · Рейтинг и ограничения

Сайт не распространяет и не хранит электронные версии произведений, а лишь предоставляет доступ к создаваемому пользователями каталогу ссылок на торрент-файлы, которые содержат только списки хеш-сумм

[Профиль] [ЛС]
Показать сообщения:    
Ответить на тему

Текущее время: Сегодня 00:07

Часовой пояс: GMT + 4



Вы не можете начинать темы
Вы не можете отвечать на сообщения
Вы не можете редактировать свои сообщения
Вы не можете удалять свои сообщения
Вы не можете голосовать в опросах
Вы не можете прикреплять файлы к сообщениям
Вы не можете скачивать файлы