Зима пришла (Василий Шлычков) [2012, анимационный фильм, WEBRip]

Ответить на тему
 
Автор Сообщение

user ®

Стаж: 7 лет 7 месяцев

Сообщений: 20008

Пост Пост: #1 от 30-Ноя-2014 03:35

[Цитировать]

Зима пришла
Страна: Россия
Жанр: анимационный фильм
Продолжительность: 00:05:39
Год выпуска: 2012
Режиссёр: Василий Шлычков
Музыка: Александр Чирков, Василий Цирин
Описание: Декоративно-музыкальная фантазия на тему "Почему у лисы рыжая шубка".
Доп. информация:
Приз за Лучшее изобразительное решение - Фестиваль анимационного кино в Суздале (2013)
Диплом "За художественное воплощение" - Фестиваль "Анимаевка" (2013)
Приз в категории "Лучший дебютный анимационный фильм" - Фестиваль "Начало" (2013)
Приз "Лучший дебют в анимационном кино" - Кинофестиваль "Лучезарный Ангел" (2013)
Приз "За новизну и фантазию" - Фестиваль "AniFestROZAFA2013" (Албания)
Качество: WEBRip
Формат: AVI
Видео: 1902 kbps, 704х528 (4:3), 25.000 fps, MPEG-4 Visual (XviD)
Аудио: 128 kbps, 44.1 kHz, 2 channels, MPEG Audio (MP3)
Субтитры: отсутствуют
Подробные технические данные
GeneralComplete name : Зима пришла (2012).aviFormat : AVIFormat/Info : Audio Video InterleaveFile size : 82.7 MiBDuration : 5mn 39sOverall bit rate : 2 040 KbpsWriting application : VirtualDubMod 1.5.10.3 (build 2550/release)Writing library : VirtualDubMod build 2550/release
VideoID : 0Format : MPEG-4 VisualFormat profile : Advanced Simple@L5Format settings, BVOP : 2Format settings, QPel : NoFormat settings, GMC : No warppointsFormat settings, Matrix : CustomCodec ID : XVIDCodec ID/Hint : XviDDuration : 5mn 39sBit rate : 1 902 KbpsWidth : 704 pixelsHeight : 528 pixelsDisplay aspect ratio : 4:3Frame rate : 25.000 fpsColor space : YUVChroma subsampling : 4:2:0Bit depth : 8 bitsScan type : ProgressiveCompression mode : LossyBits/(Pixel*Frame) : 0.205Stream size : 77.1 MiB (93%)Writing library : XviD 65
AudioID : 1Format : MPEG AudioFormat version : Version 1Format profile : Layer 3Mode : Joint stereoMode extension : MS StereoCodec ID : 55Codec ID/Hint : MP3Duration : 5mn 39sBit rate mode : ConstantBit rate : 128 KbpsChannel(s) : 2 channelsSampling rate : 44.1 KHzCompression mode : LossyStream size : 5.19 MiB (6%)Alignment : Split accross interleavesInterleave, duration : 40 ms (1.00 video frame)Interleave, preload duration : 500 msWriting library : LAME3.99rEncoding settings : -m j -V 4 -q 3 -lowpass 17 -b 128
Скриншоты
Скачать

Скачать торрент!

Как скачивать? · Что такое торрент? · Рейтинг и ограничения

Сайт не распространяет и не хранит электронные версии произведений, а лишь предоставляет доступ к создаваемому пользователями каталогу ссылок на торрент-файлы, которые содержат только списки хеш-сумм

[Профиль] [ЛС]
Показать сообщения:    
Ответить на тему

Текущее время: Сегодня 06:28

Часовой пояс: GMT + 4



Вы не можете начинать темы
Вы не можете отвечать на сообщения
Вы не можете редактировать свои сообщения
Вы не можете удалять свои сообщения
Вы не можете голосовать в опросах
Вы не можете прикреплять файлы к сообщениям
Вы не можете скачивать файлы