Мисс Бойз - Часть 2 / Miss Boys - Yuujo no Yukue (Сакичи Сато / Sakichi Sato) [2012, Япония, Комедия, драма, DVDRip] + Sub Rus

Ответить на тему
 
Автор Сообщение

user ®

Стаж: 13 лет

Сообщений: 15071

Пост Пост: #1 от 30-Ноя-2014 03:35

[Цитировать]

Мисс Бойз - Часть 2 / Miss Boys - Yuujo no Yukue
Страна: Япония
Жанр: Комедия, драма
Год выпуска: 2012
Продолжительность: 01:18:24
Перевод: Субтитры
Cубтитры: русские
Оригинальная аудиодорожка: японская
Режиссер: Сакичи Сато / Sakichi Sato
В ролях: Камакари Кента, Сузуки Шого, Цуджимото Юки, Фурукава Юки, Баба Рёма
Описание: Продолжение фильма "Miss Boys - Kessen wa Koushien!?". Действие происходит через год после событий 1-ой части. У Канэко начинается подростковый кризис, в результате чего Сакамото приходится делать очень тяжёлый выбор, так что на этот раз, помимо комедии, в фильме имеется ряд весьма драматичных сцен (даже со слезами). В девочек переодеваются поменьше, но покачественнее.
Сэмпл: http://rusfolder.com/42400646
Качество видео: DVDRip
Формат видео: AVI
Видео: 720x408 (1.76:1), 29.970 fps, XviD MPEG-4 ~739 kbps avg, 0.08 bit/pixel
Аудио: 44.100 kHz, Microsoft PCM, 2 ch, ~1411.20 kbps avg
Формат субтитров: softsub (SRT)
Subs
21
00:01:51,450 --> 00:01:54,320
Нэко-чан, чем ты тут занимаешься?
22
00:01:54,480 --> 00:01:56,320
Я приглашаю людей к нам присоединиться.
23
00:01:56,320 --> 00:01:57,350
Приглашаешь?
24
00:01:57,860 --> 00:02:00,930
Это бесполезно. Только время зря теряешь.
25
00:02:00,930 --> 00:02:02,930
Не похоже, чтобы кто-то рвался вступить в чирлидерский клуб.
26
00:02:04,180 --> 00:02:06,800
Ты же наш председатель, почему ты такой неуверенный?
27
00:02:07,350 --> 00:02:08,420
Ну...
28
00:02:08,420 --> 00:02:10,670
А ты почему так веришь в успех этой затеи?
29
00:02:10,670 --> 00:02:12,420
Так же как и раньше...
30
00:02:12,420 --> 00:02:14,420
...надо просто сидеть и ждать.
31
00:02:15,550 --> 00:02:16,640
Извините...
32
00:02:20,630 --> 00:02:22,510
...вы же из клуба чирлидеров, правильно?
33
00:02:23,120 --> 00:02:24,510
Ну да.
34
00:02:25,060 --> 00:02:26,760
А сегодня вам не надо девушками одеваться?
35
00:02:27,080 --> 00:02:29,890
Что? Ты про это знаешь?
36
00:02:29,890 --> 00:02:33,780
Да, в прошлом году я был на турнире переодетых со старшей сестрой.
37
00:02:34,740 --> 00:02:36,560
Так ты видел?
38
00:02:36,560 --> 00:02:38,060
Нашу борьбу.
39
00:02:38,060 --> 00:02:41,950
Да, я тогда подумал, что Масами выглядит очень мило...
40
00:02:41,950 --> 00:02:43,360
...и круто.
41
00:02:44,990 --> 00:02:46,010
Что?
42
00:02:46,010 --> 00:02:48,600
Так ты хочешь к нам вступить?
43
00:02:48,820 --> 00:02:49,810
Ага.
44
00:02:50,260 --> 00:02:51,810
Правда? Правда.
45
00:02:51,810 --> 00:02:54,760
Ну, что я говорил? Надо просто спокойно сидеть и ждать.
46
00:02:55,010 --> 00:02:56,760
А где Масами?
47
00:02:58,240 --> 00:03:00,440
Масами...
48
00:03:00,860 --> 00:03:02,440
...больше не...
49
00:03:03,510 --> 00:03:07,080
Он сегодня занят.
50
00:03:07,980 --> 00:03:09,080
Как тебя зовут?
MediaInfo
Общее
Полное имя : C:\cocoa otoko\Miss Boys-2\Miss Boys - Yuujo no Yukue.avi
Формат : AVI
Формат/Информация : Audio Video Interleave
Профиль формата : OpenDML
Размер файла : 1,24 Гбайт
Продолжительность : 1 ч. 18 м.
Общий поток : 2270 Кбит/сек
Видео
Идентификатор : 0
Формат : MPEG-4 Visual
Профиль формата : Advanced Simple@L5
Параметр BVOP формата : 2
Параметр QPel формата : Нет
Параметр GMC формата : Без точки перехода
Параметр матрицы формата : Default (H.263)
Режим смешивания : Сжатый битовый поток
Идентификатор кодека : XVID
Идентификатор кодека/Подсказка : XviD
Продолжительность : 1 ч. 18 м.
Битрейт : 855 Кбит/сек
Ширина : 720 пикселей
Высота : 408 пикселей
Соотношение сторон : 16:9
Частота кадров : 29,970 кадров/сек
Частота кадров в оригинале : 25,000 кадров/сек
Цветовое пространство : YUV
Субдискретизация насыщенности : 4:2:0
Битовая глубина : 8 бит
Тип развёртки : Прогрессивная
Метод сжатия : С потерями
Бит/(Пиксели*Кадры) : 0.097
Размер потока : 479 Мбайт (38%)
Библиотека кодирования : XviD 64
Аудио
Идентификатор : 1
Формат : PCM
Параметр Endianness формата : Little
Параметр Sign формата : Signed
Идентификатор кодека : 1
Продолжительность : 1 ч. 18 м.
Вид битрейта : Постоянный
Битрейт : 1411,2 Кбит/сек
Каналы : 2 канала
Частота : 44,1 КГц
Битовая глубина : 16 бит
Размер потока : 791 Мбайт (62%)
Выравнивание : Соединение по промежуткам
Продолжительность промежутка : 968 мс. (29,00 видеокадров)
Скриншоты
Скачать

Скачать торрент! Мисс Бойз - Часть 2 / Miss Boys - Yuujo no Yukue (Сакичи Сато / Sakichi Sato) [2012, Япония, Комедия, драма, DVDRip] + Sub Rus

Как скачивать? · Что такое торрент? · Рейтинг и ограничения

Сайт не распространяет и не хранит электронные версии произведений, а лишь предоставляет доступ к создаваемому пользователями каталогу ссылок на торрент-файлы, которые содержат только списки хеш-сумм

[Профиль] [ЛС]
Показать сообщения:    
Ответить на тему

Текущее время: Сегодня 17:06

Часовой пояс: GMT + 4



Вы не можете начинать темы
Вы не можете отвечать на сообщения
Вы не можете редактировать свои сообщения
Вы не можете удалять свои сообщения
Вы не можете голосовать в опросах
Вы не можете прикреплять файлы к сообщениям
Вы не можете скачивать файлы