Жизнь, жизнь / Zindagi zindagi (Тапан Синха / Tapan Sinha) [1972, Индия, Мелодрама, драма, DVDRip] MVO

Ответить на тему
 
Автор Сообщение

user ®

Стаж: 12 лет

Сообщений: 15092

Пост Пост: #1 от 30-Ноя-2014 03:35

[Цитировать]

Жизнь, жизнь / Zindagi zindagi--
Страна: Индия
Жанр: Мелодрама, драма
Год выпуска: 1972
Продолжительность: 02:08:21
Перевод: Профессиональный (многоголосый закадровый)
Cубтитры: нет
Оригинальная аудиодорожка: нет
Режиссер: Тапан Синха / Tapan Sinha--В ролях: Ашок Кумар, Сунил Датт, Вахида Рехман, Деб Мукхерджи, Фарида Джалал, Рамеш Део, Ифтекхар, Анвар Хуссейн, Джалал Ага, Насир Кхан, Мукри--Описание: Сюжет фильма вращается вокруг деревенской больницы. Доктор Сунил (Сунил Датт) работает в больнице которую построил щедрый пациент этой больницы, Чоудхри Рампрасад (Ашок Кумар). Неожиданно в больницу приезжает бывшая возлюбленная Сунила - Мета, (Вахида Рехман) чтобы вылечить сына. И между ними вспыхивают прежние романтические отношения...--Рип: pca1962--Сэмпл: http://multi-up.com/1016246
Качество видео: DVDRip
Формат видео: AVI
Видео: XviD, 640x480, 25.00 fps, 1500 kbps
Аудио: AC3, 48 kHz, 2.0 (stereo), 128 kbps (русский)-
-
MediaInfo
=== Общие ===
Полное имя : Zhizn,zhizn.1972.XviD.DVDRip.pca1962.avi
Формат : AVI
Описание формата : Audio Video Interleave
Размер файла : 1.47 Гб
Длительность : 2ч 8мин
Общий битрейт : 1 638 кбит/сек
Програмное обеспечение : VirtualDubMod 1.5.10.3 | www.virtualdub-fr.org || (build 2550/release)
Кодирующая библиотека : VirtualDubMod build 2550/release
=== Видео ===
ID (Идентификатор) : 0
Формат : MPEG-4 Visual
Профиль формата : Simple@L1
Параметр 'BVOP' : Нет
Параметр 'QPel' : Нет
Параметр 'GMC' : No warppoints
Параметр 'Matrix' : Default (H.263)
Идентификатор кодека : XVID
Подпись кодека : XviD
Длительность : 2ч 8мин
Битрейт : 1500 кбит/сек
Ширина кадра : 640 пикселей
Высота кадра : 480 пикселей
Соотношение сторон : 4:3
Частота кадров : 25.000 кадров/сек
Цветовое пространство : YUV
Субдискретизация насыщенности : 4:2:0
Глубина (разрядность) : 8 bits
Тип развертки : Прогрессивная
Режим сжатия : С потерями
Бит/(пиксель*кадр) : 0.195
Размер потока : 1.34 Гб (92%)
Кодирующая библиотека : Lavc52.113.1
=== Аудио ===
ID (Идентификатор) : 1
Формат : AC-3
Описание формата : Audio Coding 3
Mode extension : CM (complete main)
Идентификатор кодека : 2000
Длительность : 2ч 8мин
Тип битрейта : Постоянный
Битрейт : 128 кбит/сек
Канал(ы) : 2 каналов
Расположение каналов : Front: L R
Частота дискретизации : 48.0 кГц
Глубина (разрядность) : 16 bits
Режим сжатия : С потерями
Размер потока : 118 Мб (8%)
Расположение потока : Split accross interleaves
Период чередования : 40 мс (1.00 video frame)
Предварительная загрузка : 500 мс

-
-Скриншот c названием фильма Скриншоты
Скачать

Скачать торрент! Жизнь, жизнь / Zindagi zindagi (Тапан Синха / Tapan Sinha) [1972, Индия, Мелодрама, драма, DVDRip] MVO

Как скачивать? · Что такое торрент? · Рейтинг и ограничения

Сайт не распространяет и не хранит электронные версии произведений, а лишь предоставляет доступ к создаваемому пользователями каталогу ссылок на торрент-файлы, которые содержат только списки хеш-сумм

[Профиль] [ЛС]
Показать сообщения:    
Ответить на тему

Текущее время: Сегодня 15:27

Часовой пояс: GMT + 4



Вы не можете начинать темы
Вы не можете отвечать на сообщения
Вы не можете редактировать свои сообщения
Вы не можете удалять свои сообщения
Вы не можете голосовать в опросах
Вы не можете прикреплять файлы к сообщениям
Вы не можете скачивать файлы