Секс ангелов / El sexo de los angeles / Angels of Sex (Хавьер Вильяверде / Xavier Villaverde) [2012, Испания, Бразилия, драма, мелодрама, ЛГБТ, BDRip 720p] VO (Antonio) + Original (Spa) + Subs (Rus, Eng)

Ответить на тему
 
Автор Сообщение

user ®

Стаж: 7 лет 7 месяцев

Сообщений: 20008

Пост Пост: #1 от 30-Ноя-2014 03:35

[Цитировать]

Секс ангелов / El sexo de los angeles / Angels of Sex Страна: Испания, Бразилия
Жанр: драма, мелодрама, ЛГБТ
Год выпуска: 2012
Продолжительность: 01:41:26
Перевод: Одноголосый закадровый Antonio
Cубтитры: английские, русские (Антон Кедров)
Оригинальная аудиодорожка: испанский
Режиссер: Хавьер Вильяверде / Xavier Villaverde
В ролях: Астрид Берже-Фрисби, Альваро Сервантес, Льоренс Гонсалес, Соня Мендес, Джульета Марокко, Ллуиза Кастелл, Марк Гарсиа Коте, Марк Посиэлло, Рикард Фарре, Ана Симини
Описание:
Карла и Бруно влюблены друг в друга и наслаждаются беззаботным времяпровождением в компании друзей, пока однажды в их жизни не появляется Рей — обаятельный и загадочный парень, живущий не по правилам. В этой истории о любви и дружбе все привычные границы стираются ритме брейкданса и провокационном, возбуждающем и глубоко трогательном взгляде на романтические взаимоотношения.
- || -Тип релиза: BDRip 720p (рип от VivaChina@NoVA)

Контейнер: MKV
Видео: AVC (x264), 1280x544 (2.35:1) at 25,000 fps, 7700 Кbps, 0.442 bpp
Аудио 1: AC3; 224 Kbps; CBR; 2 ch; 48 khz | VO - Antonio |
Аудио 2: DTS; 768 Kbps; CBR; 6 ch; 48 khz | Испанский |
Формат субтитров: softsub (SRT)
Скриншоты || x264 Info || MediaInfo || Notes
MediaInfo
General
Unique ID                                : 234154933756342081287460149613345221373 (0xB02899901474A90683B74F5836B5AAFD)
Complete name                            : Секс ангелов.2012.L1.720p.BluRay.x264-NoVA.mkv
Format                                   : Matroska
Format version                           : Version 4 / Version 2
File size                                : 6.16 GiB
Duration                                 : 1h 41mn
Overall bit rate                         : 8 691 Kbps
Movie name                               : The Sex of the Angels [2012] [720p] VO
Encoded date                             : UTC 2014-11-28 06:11:37
Writing application                      : mkvmerge v7.3.0 ('Nouages') 32bit built on Oct 22 2014 18:44:01
Writing library                          : libebml v1.3.0 + libmatroska v1.4.1
Video
ID                                       : 1
Format                                   : AVC
Format/Info                              : Advanced Video Codec
Format profile                           : High@L4.1
Format settings, CABAC                   : Yes
Format settings, ReFrames                : 12 frames
Codec ID                                 : V_MPEG4/ISO/AVC
Duration                                 : 1h 41mn
Bit rate                                 : 7 700 Kbps
Width                                    : 1 280 pixels
Height                                   : 544 pixels
Display aspect ratio                     : 2.35:1
Frame rate mode                          : Constant
Frame rate                               : 25.000 fps
Color space                              : YUV
Chroma subsampling                       : 4:2:0
Bit depth                                : 8 bits
Scan type                                : Progressive
Bits/(Pixel*Frame)                       : 0.442
Stream size                              : 5.33 GiB (87%)
Title                                    : profile.php?mode=viewprofile&u=22488948
Writing library                          : x264 core 142 r2431 ac76440
Encoding settings                        : cabac=1 / ref=12 / deblock=1:-3:-3 / analyse=0x3:0x113 / me=umh / subme=11 / psy=1 / psy_rd=1.00:0.00 / mixed_ref=1 / me_range=32 / chroma_me=1 / trellis=2 / 8x8dct=1 / cqm=0 / deadzone=21,11 / fast_pskip=1 / chroma_qp_offset=-2 / threads=12 / lookahead_threads=2 / sliced_threads=0 / nr=0 / decimate=1 / interlaced=0 / bluray_compat=0 / constrained_intra=0 / bframes=8 / b_pyramid=2 / b_adapt=2 / b_bias=0 / direct=3 / weightb=1 / open_gop=0 / weightp=2 / keyint=250 / keyint_min=25 / scenecut=40 / intra_refresh=0 / rc_lookahead=40 / rc=2pass / mbtree=0 / bitrate=7700 / ratetol=1.0 / qcomp=0.64 / qpmin=0 / qpmax=69 / qpstep=4 / cplxblur=20.0 / qblur=0.5 / vbv_maxrate=62500 / vbv_bufsize=78125 / nal_hrd=none / filler=0 / ip_ratio=1.40 / pb_ratio=1.30 / aq=1:0.88
Language                                 : Spanish
Default                                  : Yes
Forced                                   : No
Audio #1
ID                                       : 2
Format                                   : AC-3
Format/Info                              : Audio Coding 3
Mode extension                           : CM (complete main)
Format settings, Endianness              : Big
Codec ID                                 : A_AC3
Duration                                 : 1h 41mn
Bit rate mode                            : Constant
Bit rate                                 : 224 Kbps
Channel(s)                               : 2 channels
Channel positions                        : Front: L R
Sampling rate                            : 48.0 KHz
Bit depth                                : 16 bits
Compression mode                         : Lossy
Stream size                              : 163 MiB (3%)
Title                                    : VO [Antonio]
Language                                 : Russian
Default                                  : Yes
Forced                                   : No
Audio #2
ID                                       : 3
Format                                   : DTS
Format/Info                              : Digital Theater Systems
Mode                                     : 16
Format settings, Endianness              : Big
Codec ID                                 : A_DTS
Duration                                 : 1h 41mn
Bit rate mode                            : Constant
Bit rate                                 : 768 Kbps
Channel(s)                               : 6 channels
Channel positions                        : Front: L C R, Side: L R, LFE
Sampling rate                            : 48.0 KHz
Bit depth                                : 24 bits
Compression mode                         : Lossy
Stream size                              : 557 MiB (9%)
Language                                 : Spanish
Default                                  : No
Forced                                   : No
Text #1
ID                                       : 4
Format                                   : UTF-8
Codec ID                                 : S_TEXT/UTF8
Codec ID/Info                            : UTF-8 Plain Text
Language                                 : English
Default                                  : No
Forced                                   : No
Text #2
ID                                       : 5
Format                                   : UTF-8
Codec ID                                 : S_TEXT/UTF8
Codec ID/Info                            : UTF-8 Plain Text
Title                                    : [Антон Кедров]
Language                                 : Russian
Default                                  : No
Forced                                   : No
Menu
00:00:00.000                             : en:
00:12:31.600                             : en:
00:21:48.199                             : en:
00:35:30.880                             : en:
00:49:28.560                             : en:
01:00:30.760                             : en:
01:13:49.880                             : en:
01:29:39.040                             : en:
Цитата: Аудио дорожка 1 и RU субтитры взяты с этой [url=http://***/forum/viewtopic.php?t=4252030]раздачи[/url], thx: antoniolagrande
Скачать

Скачать торрент!

Как скачивать? · Что такое торрент? · Рейтинг и ограничения

Сайт не распространяет и не хранит электронные версии произведений, а лишь предоставляет доступ к создаваемому пользователями каталогу ссылок на торрент-файлы, которые содержат только списки хеш-сумм

[Профиль] [ЛС]
Показать сообщения:    
Ответить на тему

Текущее время: Сегодня 14:13

Часовой пояс: GMT + 4



Вы не можете начинать темы
Вы не можете отвечать на сообщения
Вы не можете редактировать свои сообщения
Вы не можете удалять свои сообщения
Вы не можете голосовать в опросах
Вы не можете прикреплять файлы к сообщениям
Вы не можете скачивать файлы