Дневник мамы первоклассника (Андрей Силкин) [2014, детский, мелодрама, семейный, WEBRip]

Ответить на тему
 
Автор Сообщение

user ®

Стаж: 7 лет 7 месяцев

Сообщений: 20008

Пост Пост: #1 от 30-Ноя-2014 03:35

[Цитировать]

Дневник мамы первоклассника
Жанр: детский, мелодрама, семейный
Год выпуска: 2014
Продолжительность: 01:15:46
Режиссёр: Андрей Силкин
В ролях: Светлана Ходченкова, Дмитрий Ендальцев, Дима Полунин, Елена Яковлева, Виктор Сухоруков, Галина Польских, Олеся Жураковская, Софья Мицкевич, Арсений Мурзин, Матвей Михалевич
Описание: События в картине разворачиваются в хронологическом порядке с первого родительского собрания до последнего учебного дня первоклассника, освещая самые яркие дни мальчика, его мамы и папы.
Семья Васи — главного героя картины — понимает, как беззаботно им раньше жилось и сколько проблем и тревог приносит школьная пора. За год перед Васей как будто в миниатюре разворачивается целая жизнь. Дружба, первая любовь, муки творчества, предательство, жизнь в коллективе, упорная работа, преодоление «препятствий» — вот что, буквально, как снежный ком, сваливается на голову маленького мальчика. Кто поддержит? Кто объяснит? Кто подскажет? Только единение семьи и школы может помочь ребенку правильно расставить акценты и справиться с трудностями, что в свою очередь вызывает у него гордость за родителей и учителей. Он начинает чувствовать себя увереннее, адаптируясь ко взрослой жизни. Время проходит незаметно. Находясь в лирическом настроении, родители замечают: «Надо же, уже первый класс закончился…
Сэмпл: http://multi-up.com/1016221
Качество видео: WEBRip
Формат видео: AVI
Видео: 720x384 (1.85:1), 25.000 fps, XviD 1.2.1 ~1800 kbps avg, 0.260 bit/pixel
Аудио: 48.0 kHz, AC-3, 2 ch, ~384 kbps
MediaInfo
General
Complete name : F:\Download\Mamasha.Pervoklashk1.avi
Format : AVI
Format/Info : Audio Video Interleave
File size : 1.37 GiB
Duration : 1h 15mn
Overall bit rate : 2 582 Kbps
Writing application : VirtualDubMod 1.5.10.2 (build 2540/release)
Writing library : VirtualDubMod build 2540/release
Video
ID : 0
Format : MPEG-4 Visual
Format profile : Advanced Simple@L5
Format settings, BVOP : 2
Format settings, QPel : No
Format settings, GMC : No warppoints
Format settings, Matrix : Default (MPEG)
Codec ID : XVID
Codec ID/Hint : XviD
Duration : 1h 15mn
Bit rate : 1 800 Kbps
Width : 720 pixels
Height : 384 pixels
Display aspect ratio : 1.85:1
Frame rate : 25.000 fps
Color space : YUV
Chroma subsampling : 4:2:0
Bit depth : 8 bits
Scan type : Progressive
Compression mode : Lossy
Bits/(Pixel*Frame) : 0.260
Stream size : 975 MiB (70%)
Writing library : XviD 1.2.1 (UTC 2008-12-04)
Audio #1
ID : 1
Format : AC-3
Format/Info : Audio Coding 3
Mode extension : CM (complete main)
Format settings, Endianness : Big
Codec ID : 2000
Duration : 1h 15mn
Bit rate mode : Constant
Bit rate : 384 Kbps
Channel(s) : 2 channels
Channel positions : Front: L R
Sampling rate : 48.0 KHz
Bit depth : 16 bits
Compression mode : Lossy
Stream size : 208 MiB (15%)
Alignment : Split accross interleaves
Interleave, duration : 40 ms (1.00 video frame)
Interleave, preload duration : 500 ms
Audio #2
ID : 2
Format : AC-3
Format/Info : Audio Coding 3
Mode extension : CM (complete main)
Format settings, Endianness : Big
Codec ID : 2000
Duration : 1h 15mn
Bit rate mode : Constant
Bit rate : 384 Kbps
Channel(s) : 2 channels
Channel positions : Front: L R
Sampling rate : 48.0 KHz
Bit depth : 16 bits
Compression mode : Lossy
Stream size : 208 MiB (15%)
Alignment : Split accross interleaves
Interleave, duration : 40 ms (1.00 video frame)
Interleave, preload duration : 500 ms
Скриншот c названием фильма Скриншоты
Скачать

Скачать торрент!

Как скачивать? · Что такое торрент? · Рейтинг и ограничения

Сайт не распространяет и не хранит электронные версии произведений, а лишь предоставляет доступ к создаваемому пользователями каталогу ссылок на торрент-файлы, которые содержат только списки хеш-сумм

[Профиль] [ЛС]
Показать сообщения:    
Ответить на тему

Текущее время: Сегодня 17:41

Часовой пояс: GMT + 4



Вы не можете начинать темы
Вы не можете отвечать на сообщения
Вы не можете редактировать свои сообщения
Вы не можете удалять свои сообщения
Вы не можете голосовать в опросах
Вы не можете прикреплять файлы к сообщениям
Вы не можете скачивать файлы