Горько! 2 (Жора Крыжовников) [2014, Комедия, приключения, WEB-DLRip]

Ответить на тему
 
Автор Сообщение

user ®

Стаж: 7 лет 7 месяцев

Сообщений: 20008

Пост Пост: #1 от 29-Ноя-2014 06:00

[Цитировать]

Горько! 2
Жанр: Комедия, приключения
Год выпуска: 2014
Продолжительность: 01:36:22
Режиссёр: Жора Крыжовников
В ролях: Сергей Светлаков, Юлия Александрова, Егор Корешков, Ян Цапник, Сергей Лавыгин, Елена Валюшкина, Александр Паль, Валентина Мазунина, Юлия Стадник, Александр Робак
Описание: В надежде сорвать большой куш Наташин отчим идет на финансовую авантюру, чем подставляет своих партнеров по бизнесу. Без лишних слов те устраивают на него покушение. Вся семья скорбит по Борису Ивановичу… а он в гробу все это видел. Ему бы три дня пролежать и похороны пережить, а там родные откопают и можно спать спокойно. И все идет по плану уцелевшего отчима, пока проститься с ним не приезжает боевой товарищ. Рубаха-парень Витька Каравай мгновенно покоряет всю семью, перетягивая общее внимание на себя. Задетый за живое, покойник заставляет родных устроить роскошные поминки с участием Светлакова…

Качество видео: WEB-DLRip [Исходник: WEB-DL (1080p)]
Формат видео: AVI
Видео: XviD, 720x400 (16:9), 1830 Кбит/с, 24 кадр/с
Аудио: Русский, Dolby AC3, 44100 Гц, 192 Кбит/с, 2 канала (Стерео)

MediaInfo
General
Complete name : G0rk0.2.2014.O.WEB-DLRip.1400MB.avi
Format : AVI
Format/Info : Audio Video Interleave
File size : 1.37 GiB
Duration : 1h 36mn
Overall bit rate : 2 031 Kbps
Writing application : VirtualDubMod 1.5.10.3 | www.virtualdub-fr.org || (build 2550/release)
Writing library : VirtualDubMod build 2550/release
Video
ID : 0
Format : MPEG-4 Visual
Format profile : Advanced Simple@L5
Format settings, BVOP : 2
Format settings, QPel : No
Format settings, GMC : No warppoints
Format settings, Matrix : Default (MPEG)
Codec ID : XVID
Codec ID/Hint : XviD
Duration : 1h 36mn
Bit rate : 1 830 Kbps
Width : 720 pixels
Height : 400 pixels
Display aspect ratio : 16:9
Frame rate : 24.000 fps
Color space : YUV
Chroma subsampling : 4:2:0
Bit depth : 8 bits
Scan type : Progressive
Compression mode : Lossy
Bits/(Pixel*Frame) : 0.265
Stream size : 1.23 GiB (90%)
Writing library : XviD 1.2.1 (UTC 2008-12-04)
Audio
ID : 1
Format : AC-3
Format/Info : Audio Coding 3
Mode extension : CM (complete main)
Codec ID : 2000
Duration : 1h 36mn
Bit rate mode : Constant
Bit rate : 192 Kbps
Channel(s) : 2 channels
Channel positions : Front: L R
Sampling rate : 44.1 KHz
Bit depth : 16 bits
Compression mode : Lossy
Delay relative to video : 34ms
Stream size : 132 MiB (9%)
Alignment : Split accross interleaves
Interleave, duration : 42 ms (1.00 video frame)
Interleave, preload duration : 500 ms
Скриншот c названием фильма Скриншоты
Скачать

Скачать торрент!

Как скачивать? · Что такое торрент? · Рейтинг и ограничения

Сайт не распространяет и не хранит электронные версии произведений, а лишь предоставляет доступ к создаваемому пользователями каталогу ссылок на торрент-файлы, которые содержат только списки хеш-сумм

[Профиль] [ЛС]
Показать сообщения:    
Ответить на тему

Текущее время: Сегодня 04:09

Часовой пояс: GMT + 4



Вы не можете начинать темы
Вы не можете отвечать на сообщения
Вы не можете редактировать свои сообщения
Вы не можете удалять свои сообщения
Вы не можете голосовать в опросах
Вы не можете прикреплять файлы к сообщениям
Вы не можете скачивать файлы