Отмороженные / Морозилка / Freezer (Микаэл Саломон / Mikael Salomon) [2014, США, триллер, HDRip] MVO +Original Eng

Ответить на тему
 
Автор Сообщение

user ®

Стаж: 7 лет 7 месяцев

Сообщений: 20008

Пост Пост: #1 от 28-Ноя-2014 17:25

[Цитировать]

Отмороженные / Морозилка / Freezer
Страна: США
Жанр: триллер
Год выпуска: 2014
Продолжительность: 01:22:10
Перевод: Профессиональный (многоголосый закадровый) [Лицензия]
Оригинальная аудиодорожка: да
Cубтитры: нет
Режиссер: Микаэл Саломон / Mikael Salomon
В ролях:Дилан МакДермотт, Питер Фачинелли, Юлия Снигирь, Андрей Ивченко, Паскаль Петарди, Милан Малисич, Дэвид МакНалли, Маркус Парило
Описание:У Роберта была обычная жизнь. Но однажды он обнаружил, что оказался запертым в промышленной морозилке. Его захватили русские головорезы, которые уверены, что он является вором, укравшим у них 8 миллионов долларов и требуют их возвращения. Но проблема в том, что он не знает о чем идет речь.
Скоро Роберт обнаруживает, что он не единственный, кто находится в морозильнике. Там же, спрятавшись в коробках, сидит и Сэм. Герои не уверены друг в друге, но должны объединить свои усилия, чтобы выжить. А правда медленно начинает выясняться…
Сэмпл
Качество: HDRip
Контейнер: AVI
Видео: 720x304 (2.37:1), 23.976 fps, XviD build 73 ~2151 kbps avg, 0.41 bit/pixel
Аудио 1: 48 kHz, AC3 Dolby Digital, 2/0 (L,R) ch, ~192 kbps |Rus
Аудио 2: 48 kHz, AC3 Dolby Digital, 2/0 (L,R) ch, ~192 kbps |Eng

MI
General
Complete name : C:\Users\Вячеслав\Downloads\Otm0r0zhennye.2014.P.HDRip.1.46Gb.avi
Format : AVI
Format/Info : Audio Video Interleave
File size : 1.46 GiB
Duration : 1h 22mn
Overall bit rate : 2 550 Kbps
Writing application : VirtualDubMod 1.5.10.2 (build 2540/release)
Writing library : VirtualDubMod build 2540/release
Video
ID : 0
Format : MPEG-4 Visual
Format profile : Advanced Simple@L5
Format settings, BVOP : 1
Format settings, QPel : No
Format settings, GMC : No warppoints
Format settings, Matrix : Custom
Codec ID : XVID
Codec ID/Hint : XviD
Duration : 1h 22mn
Bit rate : 2 152 Kbps
Width : 720 pixels
Height : 304 pixels
Display aspect ratio : 2.35:1
Frame rate : 23.976 fps
Color space : YUV
Chroma subsampling : 4:2:0
Bit depth : 8 bits
Scan type : Progressive
Compression mode : Lossy
Bits/(Pixel*Frame) : 0.410
Stream size : 1.24 GiB (84%)
Writing library : XviD 73
Audio #1
ID : 1
Format : AC-3
Format/Info : Audio Coding 3
Mode extension : CM (complete main)
Format settings, Endianness : Big
Codec ID : 2000
Duration : 1h 22mn
Bit rate mode : Constant
Bit rate : 192 Kbps
Channel(s) : 2 channels
Channel positions : Front: L R
Sampling rate : 48.0 KHz
Bit depth : 16 bits
Compression mode : Lossy
Stream size : 113 MiB (8%)
Alignment : Split accross interleaves
Interleave, duration : 42 ms (1.00 video frame)
Interleave, preload duration : 500 ms
Audio #2
ID : 2
Format : AC-3
Format/Info : Audio Coding 3
Mode extension : CM (complete main)
Format settings, Endianness : Big
Codec ID : 2000
Duration : 1h 22mn
Bit rate mode : Constant
Bit rate : 192 Kbps
Channel(s) : 2 channels
Channel positions : Front: L R
Sampling rate : 44.1 KHz
Bit depth : 16 bits
Compression mode : Lossy
Stream size : 113 MiB (8%)
Alignment : Split accross interleaves
Interleave, duration : 42 ms (1.00 video frame)
Interleave, preload duration : 500 ms
Скриншоты
Скачать

Скачать торрент!

Как скачивать? · Что такое торрент? · Рейтинг и ограничения

Сайт не распространяет и не хранит электронные версии произведений, а лишь предоставляет доступ к создаваемому пользователями каталогу ссылок на торрент-файлы, которые содержат только списки хеш-сумм

[Профиль] [ЛС]
Показать сообщения:    
Ответить на тему

Текущее время: Сегодня 06:11

Часовой пояс: GMT + 4



Вы не можете начинать темы
Вы не можете отвечать на сообщения
Вы не можете редактировать свои сообщения
Вы не можете удалять свои сообщения
Вы не можете голосовать в опросах
Вы не можете прикреплять файлы к сообщениям
Вы не можете скачивать файлы