Пиф-Паф / Bang Bang (Сиддхарт Ананд / Siddharth Anand) [2014, Индия, Боевик, мелодрама, комедия, DVDRip] MVO (Baibako)

Ответить на тему
 
Автор Сообщение

user ®

Стаж: 12 лет

Сообщений: 15092

Пост Пост: #1 от 28-Ноя-2014 07:55

[Цитировать]

Пиф-Паф / Bang Bang Страна: Индия
Жанр: Боевик, мелодрама, комедия
Год выпуска: 2014
Продолжительность: 02:36:01
Перевод: Любительский (многоголосый закадровый) Baibako
Cубтитры: нет
Оригинальная аудиодорожка: нет
Режиссер: Сиддхарт Ананд / Siddharth Anand
В ролях: Катрина Каиф, Ритик Рошан, Джимми Шергилл, Денни Дензонгпа, Джавед Джеффри, Рон Смуренбург, Дипти Навал, Паван Мальхотра, Викрам Гокхале, Канвалджит Сингх, Пратик Дикшит
Описание: Случайная встреча скромной банковской служащей Харлин Сахни с обаятельным, но загадочным Раджвиром Нанда приводит к угробленным самолетам, погоням, перестрелкам, взрывам и к общему глобальному беспределу. Но хотя разворачивается трансконтинентальная погоня, Раджвир убеждает Харлин, что он хороший парень. Но действительно ли она может доверять ему, и стоит ли доверять, когда начинают летать пули?
Доп. информация: Перевод - Янина, Эльхана, Випера
Озвучка - Андрей Корзаченко, Сергей Корчак, Акмал Гурезов, Юлия Котурбаш и Элайна Мэллори
Монтаж - Павел Дежин

Семпл
Качество видео: DVDRip
Формат видео: MKV
Видео кодек: x264
Размер кадра: 720х304 pixel
Частота кадра: 23.976 fps
Видео битрейт: 1134 kbps
Аудио кодек: AC3
Частота дискретизации: 48 kHz
Каналы: 5.1 (6 ch)
Аудио битрейт: 384 kbps
MediaInfo
Формат : Matroska
Размер файла : 1,66 Гбайт
Продолжительность : 2 ч. 36 м.
Общий поток : 1520 Кбит/сек
Дата кодирования : UTC 2014-11-27 15:43:58
Программа кодирования : mkvmerge v6.9.1 ('Blue Panther') 32bit built on Apr 18 2014 18:15:44
Библиотека кодирования : libebml v1.3.0 + libmatroska v1.4.1
Видео
Идентификатор : 1
Формат : AVC
Формат/Информация : Advanced Video Codec
Профиль формата : High@L4.1
Параметр CABAC формата : Да
Параметр ReFrames формата : 5 кадров
Идентификатор кодека : V_MPEG4/ISO/AVC
Продолжительность : 2 ч. 36 м.
Битрейт : 1134 Кбит/сек
Ширина : 720 пикс.
Высота : 304 пикс.
Соотношение сторон : 2,35:1
Частота кадров : 23,976 кадр/сек
Цветовое пространство : YUV
Подвыборка цветности : 4:2:0
Битовая глубина : 8 бит
Тип развёртки : Прогрессивная
Бит/(Пиксели*Кадры) : 0.216
Размер потока : 1,20 Гбайт (73%)
Библиотека кодирования : x264 core 142 r2431 ac76440
Настройки программы : cabac=1 / ref=5 / deblock=1:0:0 / analyse=0x3:0x133 / me=umh / subme=8 / psy=1 / psy_rd=1.00:0.15 / mixed_ref=1 / me_range=24 / chroma_me=1 / trellis=1 / 8x8dct=1 / cqm=0 / deadzone=21,11 / fast_pskip=1 / chroma_qp_offset=-3 / threads=12 / lookahead_threads=2 / sliced_threads=0 / nr=0 / decimate=1 / interlaced=0 / bluray_compat=0 / constrained_intra=0 / bframes=3 / b_pyramid=2 / b_adapt=2 / b_bias=0 / direct=3 / weightb=1 / open_gop=0 / weightp=2 / keyint=230 / keyint_min=23 / scenecut=40 / intra_refresh=0 / rc_lookahead=50 / rc=2pass / mbtree=1 / bitrate=1134 / ratetol=1.0 / qcomp=0.60 / qpmin=10 / qpmax=69 / qpstep=4 / cplxblur=20.0 / qblur=0.5 / vbv_maxrate=62500 / vbv_bufsize=78125 / nal_hrd=none / filler=0 / ip_ratio=1.40 / aq=1:1.00
Язык : English
Основные цвета : Generic film
Аудио
Идентификатор : 2
Формат : AC-3
Формат/Информация : Audio Coding 3
Расширение режима : CM (complete main)
Идентификатор кодека : A_AC3
Продолжительность : 2 ч. 36 м.
Вид битрейта : Постоянный
Битрейт : 384 Кбит/сек
Каналы : 6 каналов
Расположение каналов : Front: L C R, Side: L R, LFE
Частота : 48,0 КГц
Битовая глубина : 16 бит
Метод сжатия : С потерями
Размер потока : 429 Мбайт (25%)
Язык : Russian
Скриншот c названием фильма Скриншоты
Скачать

Скачать торрент! Пиф-Паф / Bang Bang (Сиддхарт Ананд / Siddharth Anand) [2014, Индия, Боевик, мелодрама, комедия, DVDRip] MVO (Baibako)

Как скачивать? · Что такое торрент? · Рейтинг и ограничения

Сайт не распространяет и не хранит электронные версии произведений, а лишь предоставляет доступ к создаваемому пользователями каталогу ссылок на торрент-файлы, которые содержат только списки хеш-сумм

[Профиль] [ЛС]
Показать сообщения:    
Ответить на тему

Текущее время: Сегодня 06:04

Часовой пояс: GMT + 4



Вы не можете начинать темы
Вы не можете отвечать на сообщения
Вы не можете редактировать свои сообщения
Вы не можете удалять свои сообщения
Вы не можете голосовать в опросах
Вы не можете прикреплять файлы к сообщениям
Вы не можете скачивать файлы