Мой странный дедушка (Дина ВЕЛИКОВСКАЯ) [2011, Анимационный фильм, DVDScreener]

Ответить на тему
 
Автор Сообщение

user ®

Стаж: 7 лет 7 месяцев

Сообщений: 20008

Пост Пост: #1 от 27-Ноя-2014 22:00

[Цитировать]

Мой странный дедушка
Страна: Россия
Жанр: Анимационный фильм
Продолжительность: 00:08:40
Год выпуска: 2011
Русские субтитры: нет
Режиссёр: Дина ВЕЛИКОВСКАЯ
Описание: О девочке, которая живет на берегу моря со своим дедом. Старик роетсяв мусорных баках и собирает хлам. Все считают его сумасшедшим и смеются над ним, а внучка его стыдится. Но однажды дедушка показывает ей загадочную конструкцию, которую он собрал из мусора. Девочка называет ее БУША (от б/у – бывший в употреблении). Под действием ветра БУША оживает и поет красивые песни. Дедушка и внучка слушают БУШУ, поют и танцуют, и так мирятся друг с другом.
Доп. информация: Приз за Лучший кукольный фильм Открытого фестиваля анимационного кино, Суздаль (Россия), 2012
Диплом Международного фестиваля анимационных фильмов «КРОК», Киев (Украина), 2012
Лучший анимационный фильм Открытого Санкт-Петербургского фестиваля фильмов студентов киношкол «Начало», Санкт Петербург (Россия), 2012
Лучший анимационный фильм Международного фестиваля ВГИК, Москва (Россия), 2011
Международный кинофестиваль 'Il Cinema Ritrovato', Болонья (Италия), 2014
The Russian Masters, Монреаль (Канада), 2012
Большой фестиваль мультфильмов, Москва (Россия), 2012
Послание к человеку : международный кинофестиваль, Санкт Петербург (Россия), 2012
Московский международный кинофестиваль (ММКФ), Москва (Россия), 2012
Фестиваль отечественного кино ''Московская премьера'', Москва (Россия), 2012
Международный Фестиваль Мусульманского Кино, Казань (Россия), 2012
Фестиваль кино стран СНГ и Балтии "Киношок", Анапа (Россия), 2012
Фестиваль российского кино 'Окно в Европу', Выборг (Россия), 2012
Фестиваль авторского короткометражного кино "АРТкино", Москва (Россия), 2012
Международный кинофестиваль семейных и детских фильмов "В кругу семьи", Екатеринбург (Россия), 2012
Международный кинофестиваль им. А. Тарковского 'Зеркало', Иваново (Россия), 2012
Фестиваль русского кино в Онфлёре, Онфлёр (Франция), 2012
Фестиваль русского кино в Лондоне, Лондон (Великобритания), 2012
Неделя российского кино в Берлине, Берлин (Германия), 2012
Международный фестиваль документальных и анимационных фильмов в Лейпциг, Лейпциг (Германия), 2012
Кинофестиваль в Оберхаузене, Оберхаузен (Германия), 2012
Международный фестиваль-практикум киношкол “Кинопроба”, Екатеринбург (Россия), 2011
Качество: DVDScreener
Формат: AVI
Видео: DIVX, 720x416, 25fps, 1219kbps
Аудио: MPEG Layer3, 48kHz, 2ch, 192kbps
Субтитры: отсутствуют
Подробные технические данные
Полное имя : Мой странный дедушка.aviФормат : AVIФормат/Информация : Audio Video InterleaveРазмер файла : 88,1 МбайтПродолжительность : 8 м. 40 с.Общий поток : 1421 Кбит/секПрограмма кодирования : VirtualDubMod 1.5.10.3 | www.virtualdub-fr.org || (build 2550/release)Библиотека кодирования : VirtualDubMod build 2550/release
ВидеоИдентификатор : 0Формат : MPEG-4 VisualПрофиль формата : Advanced Simple@L5Параметр BVOP формата : 1Параметр QPel формата : НетПараметр GMC формата : Без точки переходаПараметр матрицы формата : Default (H.263)Идентификатор кодека : DIVXИдентификатор кодека/Информация : Project MayoИдентификатор кодека/Подсказка : DivX 4Продолжительность : 8 м. 40 с.Битрейт : 1219 Кбит/секШирина : 720 пикселейВысота : 416 пикселейСоотношение сторон : 1,731Частота кадров : 25,000 кадров/секЦветовое пространство : YUVСубдискретизация насыщенности : 4:2:0Битовая глубина : 8 битТип развёртки : ПрогрессивнаяМетод сжатия : С потерямиБит/(Пиксели*Кадры) : 0.163Размер потока : 75,6 Мбайт (86%)Библиотека кодирования : XviD 1.2.1 (UTC 2008-12-04)
АудиоИдентификатор : 1Формат : MPEG AudioВерсия формата : Version 1Профиль формата : Layer 3Идентификатор кодека : 55Идентификатор кодека/Подсказка : MP3Продолжительность : 8 м. 39 с.Вид битрейта : ПостоянныйБитрейт : 192 Кбит/секКаналы : 2 каналаЧастота : 48,0 КГцМетод сжатия : С потерямиРазмер потока : 11,9 Мбайт (14%)Выравнивание : Соединение по промежуткамПродолжительность промежутка : 40 мс. (1,00 видеокадр)Время предзагрузки промежутка : 504 мс.Библиотека кодирования : LAME3.99rНастройки программы : -m s -V 4 -q 0 -lowpass 18.6 -b 192
Скриншоты
Скачать

Скачать торрент!

Как скачивать? · Что такое торрент? · Рейтинг и ограничения

Сайт не распространяет и не хранит электронные версии произведений, а лишь предоставляет доступ к создаваемому пользователями каталогу ссылок на торрент-файлы, которые содержат только списки хеш-сумм

[Профиль] [ЛС]
Показать сообщения:    
Ответить на тему

Текущее время: Сегодня 16:28

Часовой пояс: GMT + 4



Вы не можете начинать темы
Вы не можете отвечать на сообщения
Вы не можете редактировать свои сообщения
Вы не можете удалять свои сообщения
Вы не можете голосовать в опросах
Вы не можете прикреплять файлы к сообщениям
Вы не можете скачивать файлы