Зелёные зубы (Светлана Андрианова) [2011, Анимационный фильм, DVDScreener]

Ответить на тему
 
Автор Сообщение

user ®

Стаж: 7 лет 7 месяцев

Сообщений: 20008

Пост Пост: #1 от 27-Ноя-2014 22:00

[Цитировать]

Зелёные зубы
Страна: Россия
Жанр: Анимационный фильм
Продолжительность: 00:05:10
Год выпуска: 2011
Русские субтитры: нет
Режиссёр: Светлана Андрианова
Описание: В школу пришел новый директор и для мальчика Коли все изменилось.
Доп. информация: Лучший детский фильм Открытого фестиваля анимационного кино, Суздаль (Россия), 2012
Большой фестиваль мультфильмов, Москва (Россия), 2012
Московский международный кинофестиваль (ММКФ), Москва (Россия), 2012
Фестиваль отечественного кино ''Московская премьера'', Москва (Россия), 2012
Международный кинофестиваль "Меридианы Тихого", Владивосток (Россия), 2012
Фестиваль российского кино 'Окно в Европу', Выборг (Россия), 2012
Фестиваль русского кино в Лондоне, Лондон (Великобритания), 2012
Качество: DVDScreener
Формат: AVI
Видео: DIVX, 720x536, 25fps, 1556kbps
Аудио: MPEG Layer 3, 48kHz, 2ch, 192kbps
Субтитры: отсутствуют
Подробные технические данные
Полное имя :Зелёные зубы.aviФормат : AVIФормат/Информация : Audio Video InterleaveРазмер файла : 65,1 МбайтПродолжительность : 5 м. 10 с.Общий поток : 1758 Кбит/секПрограмма кодирования : VirtualDubMod 1.5.10.3 | www.virtualdub-fr.org || (build 2550/release)Библиотека кодирования : VirtualDubMod build 2550/release
ВидеоИдентификатор : 0Формат : MPEG-4 VisualПрофиль формата : Advanced Simple@L5Параметр BVOP формата : 1Параметр QPel формата : НетПараметр GMC формата : Без точки переходаПараметр матрицы формата : Default (H.263)Идентификатор кодека : DIVXИдентификатор кодека/Информация : Project MayoИдентификатор кодека/Подсказка : DivX 4Продолжительность : 5 м. 10 с.Битрейт : 1556 Кбит/секШирина : 720 пикселейВысота : 536 пикселейСоотношение сторон : 4:3Частота кадров : 25,000 кадров/секЦветовое пространство : YUVСубдискретизация насыщенности : 4:2:0Битовая глубина : 8 битТип развёртки : ПрогрессивнаяМетод сжатия : С потерямиБит/(Пиксели*Кадры) : 0.161Размер потока : 57,6 Мбайт (89%)Библиотека кодирования : XviD 1.2.1 (UTC 2008-12-04)
АудиоИдентификатор : 1Формат : MPEG AudioВерсия формата : Version 1Профиль формата : Layer 3Идентификатор кодека : 55Идентификатор кодека/Подсказка : MP3Продолжительность : 5 м. 10 с.Вид битрейта : ПостоянныйБитрейт : 192 Кбит/секКаналы : 2 каналаЧастота : 48,0 КГцМетод сжатия : С потерямиРазмер потока : 7,11 Мбайт (11%)Выравнивание : Соединение по промежуткамПродолжительность промежутка : 40 мс. (1,00 видеокадр)Время предзагрузки промежутка : 504 мс.Библиотека кодирования : LAME3.99rНастройки программы : -m s -V 4 -q 0 -lowpass 18.6 -b 192
Скриншоты
Скачать

Скачать торрент!

Как скачивать? · Что такое торрент? · Рейтинг и ограничения

Сайт не распространяет и не хранит электронные версии произведений, а лишь предоставляет доступ к создаваемому пользователями каталогу ссылок на торрент-файлы, которые содержат только списки хеш-сумм

[Профиль] [ЛС]
Показать сообщения:    
Ответить на тему

Текущее время: Сегодня 12:37

Часовой пояс: GMT + 4



Вы не можете начинать темы
Вы не можете отвечать на сообщения
Вы не можете редактировать свои сообщения
Вы не можете удалять свои сообщения
Вы не можете голосовать в опросах
Вы не можете прикреплять файлы к сообщениям
Вы не можете скачивать файлы