Мерси / Милосердие / Mercy (Питер Корнвэлл / Peter Cornwell) [2014, США, ужасы, триллер, WEB-DLRip] DVO

Ответить на тему
 
Автор Сообщение

user ®

Стаж: 7 лет 7 месяцев

Сообщений: 20008

Пост Пост: #1 от 27-Ноя-2014 22:00

[Цитировать]

Мерси / Милосердие / Mercy-
-
-
-
-- Страна: США
Жанр: ужасы, триллер
Год выпуска: 2014
Продолжительность: 01:18:39
Перевод: Любительский (двухголосый закадровый) [DeadSno & den904] - по переводу [dsa69]
Cубтитры: нет
Режиссер: Питер Корнвэлл / Peter Cornwell
В ролях: Чендлер Риггз, Дилан МакДермотт, Марк Дюпласс, Фрэнсис О’Коннор, Джоэл Кортни, Аманда Уолш, Ширли Найт, Хана Хэйес, Крис Браунинг, Джо Эгендер
Описание:У каждой семьи свои тайны. Вот и в семье 11-летнего Джорджа она тоже имеется. Вместе с матерью и братом он отправляется ухаживать за старой больной бабушкой, к чьим странноватым и ужасным сказкам он привык с самого детства. Но они ничто по сравнению со страшным проклятием его семьи, которое преследует их. Страшные сказки детства оживают, ведь бабуля не просто хранила их и передавала вначале детям, а потом внукам. Она была главной героиней самой страшной сказки.
Фильм снят по рассказу Стивена Кинга "Бабуля". В самом названии фильма присутствует некоторая игра слов. "Мерси" - не только имя главной героини, но также и "Милосердие". Но и конечно огромный сюрприз для всех поклонников "Ходячих Мертвецов". В главной роли юная звезда сериала Чендлер Риггз (Карл Грэймс, сын шерифа Рикка). Это дебют мальчика в полном метре. На мой взгляд, весьма удачный. Взяв в руки топор, он уверенно расправляется с нечистью... Сказывается опыт, полученный на съёмочной площадке "Ходячих".

Качество видео: WEB-DLRip
Формат видео: AVI
Видео: 720x304 (2.37:1), 23.976 fps, XviD build 73 ~2139 kbps avg, 0.41 bit/pixel
Аудио: 48 kHz, AC3 Dolby Digital, 3/2 (L,C,R,l,r) + LFE ch, ~384.00 kbps avg
MediaInfo
Формат : AVI
Формат/Информация : Audio Video Interleave
Размер файла : 1,39 Гбайт
Продолжительность : 1 ч. 18 м.
Общий поток : 2533 Кбит/сек
Программа кодирования : VirtualDubMod 1.5.10.3 (build 2550/release)
Библиотека кодирования : VirtualDubMod build 2550/release
Видео
Идентификатор : 0
Формат : MPEG-4 Visual
Профиль формата : Advanced Simple@L5
Параметр BVOP формата : 1
Параметр QPel формата : Нет
Параметр GMC формата : Без точки перехода
Параметр матрицы формата : Выборочная
Идентификатор кодека : XVID
Идентификатор кодека/Подсказка : XviD
Продолжительность : 1 ч. 18 м.
Битрейт : 2139 Кбит/сек
Ширина : 720 пикселей
Высота : 304 пикселя
Соотношение сторон : 2,35:1
Частота кадров : 23,976 кадра/сек
Цветовое пространство : YUV
Субдискретизация насыщенности : 4:2:0
Битовая глубина : 8 бит
Тип развёртки : Прогрессивная
Метод сжатия : С потерями
Бит/(Пиксели*Кадры) : 0.408
Размер потока : 1,18 Гбайт (84%)
Библиотека кодирования : XviD 73
Аудио
Идентификатор : 1
Формат : AC-3
Формат/Информация : Audio Coding 3
Расширение режима : CM (complete main)
Параметр Endianness формата : Big
Идентификатор кодека : 2000
Продолжительность : 1 ч. 18 м.
Вид битрейта : Постоянный
Битрейт : 384 Кбит/сек
Каналы : 6 каналов
Расположение каналов : Front: L C R, Side: L R, LFE
Частота : 48,0 КГц
Битовая глубина : 16 бит
Метод сжатия : С потерями
Размер потока : 216 Мбайт (15%)
Выравнивание : Разделение по промежуткам
Продолжительность промежутка : 42 мс. (1,00 видеокадр)
Время предзагрузки промежутка : 500 мс.
Скриншоты
Скачать

Скачать торрент!

Как скачивать? · Что такое торрент? · Рейтинг и ограничения

Сайт не распространяет и не хранит электронные версии произведений, а лишь предоставляет доступ к создаваемому пользователями каталогу ссылок на торрент-файлы, которые содержат только списки хеш-сумм

[Профиль] [ЛС]
Показать сообщения:    
Ответить на тему

Текущее время: Сегодня 19:21

Часовой пояс: GMT + 4



Вы не можете начинать темы
Вы не можете отвечать на сообщения
Вы не можете редактировать свои сообщения
Вы не можете удалять свои сообщения
Вы не можете голосовать в опросах
Вы не можете прикреплять файлы к сообщениям
Вы не можете скачивать файлы