Босиком по городу / Barefoot (Эндрю Флеминг / Andrew Fleming) [2014, США, драма, мелодрама, комедия, WEB-DLRip] MVO

Ответить на тему
 
Автор Сообщение

user ®

Стаж: 7 лет 7 месяцев

Сообщений: 20008

Пост Пост: #1 от 27-Ноя-2014 22:00

[Цитировать]

Босиком по городу / Barefoot-
-
-
-
-- Страна: США
Жанр: драма, мелодрама, комедия
Год выпуска: 2014
Продолжительность: 01:29:32
Перевод: Профессиональный (многоголосый закадровый) [Лицензия]
Cубтитры: нет
Режиссер: Эндрю Флеминг / Andrew Fleming
В ролях: Эван Рэйчел Вуд, Скотт Спидман, Трит Уильямс, Кейт Бёртон, Дж.К. Симмонс, Дж. Омар Кастро, Дэвид Дженсен, Жаклин Флеминг, Эшли Борман, Рики Уэйн
Описание:Джей — гуляка и дебошир. Он не удерживается ни на одном рабочем месте, а собственная семья считает его законченным неудачником. После очередной выходки его направляют «отдать долг обществу» — поработать уборщиком в клинике для душевнобольных. Там он знакомится с пациенткой Дэйзи — обаятельной девушкой, которая выглядит вполне нормальной, но совершенно не адаптирована к окружающей действительности. Девушка быстро привязывается к Джею и даже сбегает вслед за ним из клиники. Теперь Джей должен решить, как быть дальше. С одной стороны у него есть приглашение на свадьбу брата, где его ждут вместе с девушкой, которой у него нет, с другой — Дэйзи, которая ни на шаг от него не отходит. Джей решается на аферу и отправляется на свадьбу вместе с Дэйзи…

Качество видео: WEB-DLRip
Формат видео: AVI
Видео: 720x304 (2.37:1), 23.976 fps, XviD build 73 ~1944 kbps avg, 0.37 bit/pixel
Аудио: 48 kHz, AC3 Dolby Digital, 3/2 (L,C,R,l,r) + LFE ch, ~384.00 kbps avg
Сравнение
[url=http://***/forum/viewtopic.php?t=4756052]http://***/forum/viewtopic.php?t=4756052[/url] http://screenshotcomparison.com/comparison/101914/picture:0
MediaInfo
Формат : AVI
Формат/Информация : Audio Video Interleave
Размер файла : 1,46 Гбайт
Продолжительность : 1 ч. 29 м.
Общий поток : 2338 Кбит/сек
Программа кодирования : VirtualDubMod 1.5.10.3 | www.virtualdub-fr.org || (build 2550/release)
Библиотека кодирования : VirtualDubMod build 2550/release
Видео
Идентификатор : 0
Формат : MPEG-4 Visual
Профиль формата : Advanced Simple@L5
Параметр BVOP формата : 1
Параметр QPel формата : Нет
Параметр GMC формата : Без точки перехода
Параметр матрицы формата : Выборочная
Идентификатор кодека : XVID
Идентификатор кодека/Подсказка : XviD
Продолжительность : 1 ч. 29 м.
Битрейт : 1945 Кбит/сек
Ширина : 720 пикселей
Высота : 304 пикселя
Соотношение сторон : 2,35:1
Частота кадров : 23,976 кадра/сек
Цветовое пространство : YUV
Субдискретизация насыщенности : 4:2:0
Битовая глубина : 8 бит
Тип развёртки : Прогрессивная
Метод сжатия : С потерями
Бит/(Пиксели*Кадры) : 0.371
Размер потока : 1,22 Гбайт (83%)
Библиотека кодирования : XviD 73
Аудио
Идентификатор : 1
Формат : AC-3
Формат/Информация : Audio Coding 3
Расширение режима : CM (complete main)
Параметр Endianness формата : Big
Идентификатор кодека : 2000
Продолжительность : 1 ч. 29 м.
Вид битрейта : Постоянный
Битрейт : 384 Кбит/сек
Каналы : 6 каналов
Расположение каналов : Front: L C R, Side: L R, LFE
Частота : 48,0 КГц
Битовая глубина : 16 бит
Метод сжатия : С потерями
Размер потока : 246 Мбайт (16%)
Выравнивание : Разделение по промежуткам
Продолжительность промежутка : 42 мс. (1,00 видеокадр)
Время предзагрузки промежутка : 500 мс.
Скриншоты
Скачать

Скачать торрент!

Как скачивать? · Что такое торрент? · Рейтинг и ограничения

Сайт не распространяет и не хранит электронные версии произведений, а лишь предоставляет доступ к создаваемому пользователями каталогу ссылок на торрент-файлы, которые содержат только списки хеш-сумм

[Профиль] [ЛС]
Показать сообщения:    
Ответить на тему

Текущее время: Сегодня 18:36

Часовой пояс: GMT + 4



Вы не можете начинать темы
Вы не можете отвечать на сообщения
Вы не можете редактировать свои сообщения
Вы не можете удалять свои сообщения
Вы не можете голосовать в опросах
Вы не можете прикреплять файлы к сообщениям
Вы не можете скачивать файлы