РЭД 2 / Red 2 (Дин Паризо / Dean Parisot) [2013, США, Франция, Канада, боевик, триллер, комедия, криминал, BDRip 720p] Dub + AVO (Гаврилов) + Sub Rus, Eng + Original Eng

Ответить на тему
 
Автор Сообщение

user ®

Стаж: 7 лет 7 месяцев

Сообщений: 20008

Пост Пост: #1 от 27-Ноя-2014 02:00

[Цитировать]

РЭД 2 / Red 2 Страна: США, Франция, Канада
Студия: DC Entertainment, Di Bonaventura Pictures, Etalon film
Жанр: боевик, триллер, комедия, криминал
Год выпуска: 2013
Продолжительность: 01:55:48
Перевод 1: Профессиональный (дублированный) Blu-Ray RUS
Перевод 2: Авторский (одноголосый закадровый) Гаврилов
Cубтитры: русские (forced, full), английские (Full, SDH, SDH Colored)
Оригинальная аудиодорожка: английский
Режиссер: Дин Паризо / Dean Parisot
В ролях: Брюс Уиллис, Джон Малкович, Мэри-Луиз Паркер, Кэтрин Зета-Джонс, Ли Бён Хон, Энтони Хопкинс, Хелен Миррен, Йонг Кун Ли, Нил МакДонаф, Дэвид Тьюлис
Описание: Вышедший на пенсию тайный агент ЦРУ Фрэнк Мозес объединяется с командой старых друзей, элитных оперативников, с целью найти пропавшее оружие массового уничтожения. Чтобы его заполучить, придется прорываться сквозь армии безжалостных наемников, террористов и всегда жаждущих власти политиков.
Миссия приводит Фрэнка и его разношерстную команду вышедших на пенсию убийц в Париж, Лондон и Москву. В их арсенале есть только хитрость, старая сноровка и помощь друг друга, чтобы спасти мир и при этом самим остаться в живых.


Тип релиза: BDRip 720p [NTb]
Контейнер: MKV
Видео: AVC, 1280x534, 7279 kbps, 23.976 fps
Аудио 1: Russian: 48 kHz, AC3, 3/2 (L,C,R,l,r) + LFE ch, 640.00 kbps |Blu-ray RUS|
Аудио 2: Russian: 48 kHz, AC3, 3/2 (L,C,R,l,r) + LFE ch, 640.00 kbps |Гаврилов|
Аудио 3: English: 48 kHz, AC3, 3/2 (L,C,R,l,r) + LFE ch, 640.00 kbps |Original|
Чаптеры:есть

x264 log
x264 [info]: frame I:1910 Avg QP:15.62 size:130989
x264 [info]: frame P:34177 Avg QP:17.03 size: 57369
x264 [info]: frame B:130521 Avg QP:18.69 size: 32672
x264 [info]: consecutive B-frames: 2.2% 1.5% 5.9% 17.9% 16.4% 46.3% 5.7% 1.3% 1.3% 1.5%
encoded 166608 frames, 3.60 fps, 7454.72 kb/s, duration 12:50:47.02
Доп.информация
За перевод Гаврилова спасибо пользователям форума hdtracker: rydanes, -Джосс-, doctor811, Hattori Hanzo, kinobbk, Vimann, Tehnar, nimph, Shumway, saenwert, ASUKEVICH, GaryH, dunhill2000, Chistobaev, lexal, therox, Gangster, SavineX, _MyxAmoP_, timur, Pain_70, milocerd0v, Loki, olegsoleg, chef&chef, Guyver, Iron Man, hulahup, Role, KpucTo161, DrCrane, DB73, Диммон, Luka69, chernila.
MediaInfo
General
Unique ID : 225528944782478423778359415295634663237 (0xA9AB4B788DE87518A0A085777D6D6745)
Complete name : D:\дорога\Red.2.2013.720p.BluRay.DD5.1.x264-Talian-.mkv
Format : Matroska
Format version : Version 2
File size : 7.59 GiB
Duration : 1h 55mn
Overall bit rate : 9 378 Kbps
Movie name : Red 2-Talian-
Encoded date : UTC 2014-11-25 14:11:51
Writing application : mkvmerge v5.7.0 ('The Whirlwind') built on Jul 8 2012 20:08:51
Writing library : libebml v1.2.3 + libmatroska v1.3.0
Video
ID : 1
Format : AVC
Format/Info : Advanced Video Codec
Format profile : High@L4.1
Format settings, CABAC : Yes
Format settings, ReFrames : 12 frames
Codec ID : V_MPEG4/ISO/AVC
Duration : 1h 55mn
Bit rate : 7 271 Kbps
Width : 1 280 pixels
Height : 534 pixels
Display aspect ratio : 2.40:1
Frame rate : 23.976 fps
Color space : YUV
Chroma subsampling : 4:2:0
Bit depth : 8 bits
Scan type : Progressive
Bits/(Pixel*Frame) : 0.444
Stream size : 5.88 GiB (78%)
Title : NTb
Writing library : x264 core 140 r2377kMod 1ca7bb9
Encoding settings : cabac=1 / ref=12 / deblock=1:-3:-3 / analyse=0x3:0x133 / me=umh / subme=10 / psy=1 / fade_compensate=0.00 / psy_rd=1.05:0.00 / mixed_ref=1 / me_range=48 / chroma_me=1 / trellis=2 / 8x8dct=1 / cqm=0 / deadzone=21,11 / fast_pskip=0 / chroma_qp_offset=-2 / threads=6 / lookahead_threads=1 / sliced_threads=0 / nr=0 / decimate=0 / interlaced=0 / bluray_compat=0 / constrained_intra=0 / fgo=0 / bframes=9 / b_pyramid=2 / b_adapt=2 / b_bias=0 / direct=3 / weightb=1 / open_gop=0 / weightp=2 / keyint=250 / keyint_min=23 / scenecut=40 / intra_refresh=0 / rc_lookahead=100 / rc=crf / mbtree=0 / crf=17.0000 / qcomp=0.65 / qpmin=0 / qpmax=69 / qpstep=4 / vbv_maxrate=50000 / vbv_bufsize=62500 / crf_max=0.0 / nal_hrd=none / filler=0 / ip_ratio=1.30 / pb_ratio=1.20 / aq=1:0.80
Language : English
Default : Yes
Forced : No
Audio #1
ID : 2
Format : AC-3
Format/Info : Audio Coding 3
Mode extension : CM (complete main)
Format settings, Endianness : Big
Codec ID : A_AC3
Duration : 1h 55mn
Bit rate mode : Constant
Bit rate : 640 Kbps
Channel(s) : 6 channels
Channel positions : Front: L C R, Side: L R, LFE
Sampling rate : 48.0 KHz
Bit depth : 16 bits
Compression mode : Lossy
Stream size : 530 MiB (7%)
Title : DUB-Blu-Ray RUS
Language : Russian
Default : Yes
Forced : No
Audio #2
ID : 3
Format : AC-3
Format/Info : Audio Coding 3
Mode extension : CM (complete main)
Format settings, Endianness : Big
Codec ID : A_AC3
Duration : 1h 55mn
Bit rate mode : Constant
Bit rate : 640 Kbps
Channel(s) : 6 channels
Channel positions : Front: L C R, Side: L R, LFE
Sampling rate : 48.0 KHz
Bit depth : 16 bits
Compression mode : Lossy
Stream size : 530 MiB (7%)
Title : AVO-Гаврилов
Language : Russian
Default : No
Forced : No
Audio #3
ID : 4
Format : AC-3
Format/Info : Audio Coding 3
Mode extension : CM (complete main)
Format settings, Endianness : Big
Codec ID : A_AC3
Duration : 1h 55mn
Bit rate mode : Constant
Bit rate : 640 Kbps
Channel(s) : 6 channels
Channel positions : Front: L C R, Side: L R, LFE
Sampling rate : 48.0 KHz
Bit depth : 16 bits
Compression mode : Lossy
Stream size : 530 MiB (7%)
Title : Original
Language : English
Default : No
Forced : No
Text #1
ID : 5
Format : UTF-8
Codec ID : S_TEXT/UTF8
Codec ID/Info : UTF-8 Plain Text
Title : Sub-forced
Language : Russian
Default : Yes
Forced : No
Text #2
ID : 6
Format : UTF-8
Codec ID : S_TEXT/UTF8
Codec ID/Info : UTF-8 Plain Text
Title : Sub-full
Language : Russian
Default : No
Forced : No
Text #3
ID : 7
Format : UTF-8
Codec ID : S_TEXT/UTF8
Codec ID/Info : UTF-8 Plain Text
Title : Sub-full
Language : English
Default : No
Forced : No
Text #4
ID : 8
Format : UTF-8
Codec ID : S_TEXT/UTF8
Codec ID/Info : UTF-8 Plain Text
Title : Sub-SDH
Language : English
Default : No
Forced : No
Text #5
ID : 9
Format : UTF-8
Codec ID : S_TEXT/UTF8
Codec ID/Info : UTF-8 Plain Text
Title : Sub-SDH Colored
Language : English
Default : No
Forced : No
Menu
00:00:00.000 : en:Chapter 00
00:08:16.412 : en:Chapter 01
00:14:47.511 : en:Chapter 02
00:21:15.816 : en:Chapter 03
00:28:18.655 : en:Chapter 04
00:39:36.207 : en:Chapter 05
00:47:09.743 : en:Chapter 06
00:54:17.879 : en:Chapter 07
01:00:06.644 : en:Chapter 08
01:07:32.339 : en:Chapter 09
01:11:34.123 : en:Chapter 10
01:18:38.088 : en:Chapter 11
01:23:01.601 : en:Chapter 12
01:27:46.386 : en:Chapter 13
01:35:37.773 : en:Chapter 14
01:41:29.625 : en:Chapter 15
01:45:09.344 : en:Chapter 16
01:46:45.232 : en:Chapter 17
Скриншоты
Source vs Encode


Скачать

Скачать торрент!

Как скачивать? · Что такое торрент? · Рейтинг и ограничения

Сайт не распространяет и не хранит электронные версии произведений, а лишь предоставляет доступ к создаваемому пользователями каталогу ссылок на торрент-файлы, которые содержат только списки хеш-сумм

[Профиль] [ЛС]
Показать сообщения:    
Ответить на тему

Текущее время: Сегодня 03:14

Часовой пояс: GMT + 4



Вы не можете начинать темы
Вы не можете отвечать на сообщения
Вы не можете редактировать свои сообщения
Вы не можете удалять свои сообщения
Вы не можете голосовать в опросах
Вы не можете прикреплять файлы к сообщениям
Вы не можете скачивать файлы