Красотки в Париже / Sous les jupes des filles (Одри Дана / Audrey Dana) [2014 г., Франция, комедия, BDRip] MVO

Ответить на тему
 
Автор Сообщение

user ®

Стаж: 7 лет 7 месяцев

Сообщений: 20008

Пост Пост: #1 от 27-Ноя-2014 02:00

[Цитировать]

Красотки в Париже / Sous les jupes des filles

Год выпуска: 2014
Страна: Франция
Жанр: комедия
Продолжительность: 01:56:02
Перевод: Профессиональный (многоголосый, закадровый) [Лицензия]
Cубтитры: нет
Режиссер: Одри Дана / Audrey Dana
В ролях: Ванесса Паради, Изабель Аджани, Летиция Каста, Сильви Тестю, Жеральдин Накаш, Жюли Феррье, Марина Андс, Алис Тальони
Описание: Париж. Любовь. И, конечно, француженки: свободные, непредсказуемые, изысканные и страстные. Сегодня они решили раскрыть свои секреты и поделиться желаниями. Это комедия о любви, сексе и поцелуях, о том, чего и кого хотят женщины.
Автор: Scarabey
Качество видео: BDRip (Исходник: Sous les jupes des filles (2014) Blu-ray RUS 1080p AVC DTS-HD 5.1)
Формат видео: AVI
Видео: 720x304 (2.37:1), 24 fps, XviD build 73 ~1582 kbps avg, 0.30 bit/pixel
Аудио: 48 kHz, AC3 Dolby Digital, 2/0 (L,R) ch, ~192.00 kbps avg

Сэмпл MediaInfo
Общее
Полное имя : D:\Scarabey\[2014] Sous les jupes des filles 1.45 MVO\Krasotki.v.Parije.2014_BDRip__[Scarabey].avi
Формат : AVI
Формат/Информация : Audio Video Interleave
Размер файла : 1,45 Гбайт
Продолжительность : 1 ч. 56 м.
Общий поток : 1784 Кбит/сек
Программа кодирования : VirtualDubMod 1.5.10.3 | www.virtualdub-fr.org || (build 2550/release)
Библиотека кодирования : VirtualDubMod build 2550/release
Видео
Идентификатор : 0
Формат : MPEG-4 Visual
Профиль формата : Advanced Simple@L5
Параметр BVOP формата : 1
Параметр QPel формата : Нет
Параметр GMC формата : Без точки перехода
Параметр матрицы формата : Выборочная
Идентификатор кодека : XVID
Идентификатор кодека/Подсказка : XviD
Продолжительность : 1 ч. 56 м.
Битрейт : 1583 Кбит/сек
Ширина : 720 пикселей
Высота : 304 пикселя
Соотношение сторон : 2,35:1
Частота кадров : 24,000 кадра/сек
Цветовое пространство : YUV
Субдискретизация насыщенности : 4:2:0
Битовая глубина : 8 бит
Тип развёртки : Прогрессивная
Метод сжатия : С потерями
Бит/(Пиксели*Кадры) : 0.301
Размер потока : 1,28 Гбайт (89%)
Библиотека кодирования : XviD 73
Аудио
Идентификатор : 1
Формат : AC-3
Формат/Информация : Audio Coding 3
Расширение режима : CM (complete main)
Параметр Endianness формата : Big
Идентификатор кодека : 2000
Продолжительность : 1 ч. 56 м.
Вид битрейта : Постоянный
Битрейт : 192 Кбит/сек
Каналы : 2 канала
Расположение каналов : Front: L R
Частота : 48,0 КГц
Битовая глубина : 16 бит
Метод сжатия : С потерями
Размер потока : 159 Мбайт (11%)
Выравнивание : Разделение по промежуткам
Продолжительность промежутка : 42 мс. (1,00 видеокадр)
Время предзагрузки промежутка : 500 мс.
Скриншот с названием фильма Скриншоты
Скачать

Скачать торрент!

Как скачивать? · Что такое торрент? · Рейтинг и ограничения

Сайт не распространяет и не хранит электронные версии произведений, а лишь предоставляет доступ к создаваемому пользователями каталогу ссылок на торрент-файлы, которые содержат только списки хеш-сумм

[Профиль] [ЛС]
Показать сообщения:    
Ответить на тему

Текущее время: Сегодня 04:22

Часовой пояс: GMT + 4



Вы не можете начинать темы
Вы не можете отвечать на сообщения
Вы не можете редактировать свои сообщения
Вы не можете удалять свои сообщения
Вы не можете голосовать в опросах
Вы не можете прикреплять файлы к сообщениям
Вы не можете скачивать файлы