Игра на высоте / When the Game Stands Tall (Томас Картер / Thomas Carter) [2014, США, драма, спорт, BDRip-AVC] MVO (iTunes) + Original Eng

Ответить на тему
 
Автор Сообщение

user ®

Стаж: 7 лет 7 месяцев

Сообщений: 20008

Пост Пост: #1 от 27-Ноя-2014 02:00

[Цитировать]

Игра на высотеWhen the Game Stands Tall- Страна: США
Жанр: драма, спорт
Год выпуска: 2014
Продолжительность: 01:55:09
Перевод: Профессиональный (многоголосый закадровый) iTunes
Cубтитры: нет
Оригинальная аудиодорожка: английский
Режиссер: Томас Картер / Thomas Carter
В ролях: Джеймс Кэвизел, Александр Людвиг, Майкл Чиклис, Лора Дерн, Клэнси Браун, Сер’Дариус Блэйн, Стивен Джеймс, Мэттью Даддарио, Джо Массинджилл, Джесси Ашер
Описание: Фильм основан на реальных событиях. Это история футбольного тренера, благодаря которому безызвестная школьная футбольная команда провела победную серию из 151-й игры.

Рип от Vikosol
Качество видео: BDRip-AVC [When.the.Game.Stands.Tall.2014.REMUX.1080p.BluRay.AVC.DTS-HD.MA.5.1-iFT]
Формат видео: MKV
Видео: AVC, 808x436 (1.853), 1943 kbps, 23,976 fps, 0,230 bpp
Аудио №1: русский / AC3 / 5.1 / 48 kHz / 384 kbps / 16 bit |iTunes|
Аудио №2: английский / AC3 / 5.1 / 48 kHz / 384 kbps / 16 bit
Навигация по главам: есть

MediaInfo + Лог х264
x264 [info]: frame I:1552  Avg QP:14.97  size: 45661
x264 [info]: frame P:48037 Avg QP:18.68  size: 17393
x264 [info]: frame B:116082 Avg QP:19.53  size:  6614
x264 [info]: consecutive B-frames:  7.1%  6.6% 13.8% 31.7% 16.0% 15.8%  3.5%  3.2%  1.0%  0.7%  0.5%
x264 [info]: mb I  I16..4:  6.9% 63.7% 29.4%
x264 [info]: mb P  I16..4:  1.0% 13.4%  4.1%  P16..4: 28.9% 32.9% 11.6%  2.4%  0.3%    skip: 5.4%
x264 [info]: mb B  I16..4:  0.1%  2.0%  0.8%  B16..8: 33.0% 22.8%  4.2%  direct: 4.9%  skip:32.3%  L0:39.4% L1:43.9% BI:16.7%
x264 [info]: 8x8 transform intra:70.2% inter:58.2%
x264 [info]: direct mvs  spatial:97.5% temporal:2.5%
x264 [info]: coded y,uvDC,uvAC intra: 83.9% 78.8% 49.2% inter: 24.5% 15.8% 6.4%
x264 [info]: i16 v,h,dc,p: 20% 13%  3% 65%
x264 [info]: i8 v,h,dc,ddl,ddr,vr,hd,vl,hu: 13% 12%  5%  8% 12% 12% 12% 12% 13%
x264 [info]: i4 v,h,dc,ddl,ddr,vr,hd,vl,hu: 26% 10%  5%  7% 12% 11% 11%  9% 10%
x264 [info]: i8c dc,h,v,p: 30% 30% 22% 18%
x264 [info]: Weighted P-Frames: Y:2.4% UV:1.0%
x264 [info]: ref P L0: 54.6% 12.7% 14.0%  5.0%  3.7%  2.7%  2.1%  1.3%  1.1%  0.9%  0.8%  0.8%  0.2%  0.0%
x264 [info]: ref B L0: 78.7%  9.9%  4.5%  2.0%  1.5%  1.0%  0.9%  0.5%  0.5%  0.3%  0.1%
x264 [info]: ref B L1: 93.9%  6.1%
x264 [info]: kb/s:1938.29
x264 [total]: encoded 165671 frames, 11.39 fps, 1938.29 kb/s, 1596.6 MB
Format                           : Matroska
Format version                   : Version 4 / Version 2
File size                        : 2.18 GiB
Duration                         : 1h 55mn
Overall bit rate                 : 2 708 Kbps
Encoded date                     : UTC 2014-11-26 12:23:33
Writing application              : mkvmerge v6.8.0 ('Theme for Great Cities') 64bit built on Mar  2 2014 21:34:26
Writing library                  : libebml v1.3.0 + libmatroska v1.4.1
Video
ID                               : 1
Format                           : AVC
Format/Info                      : Advanced Video Codec
Format profile                   : High@L4.1
Format settings, CABAC           : Yes
Format settings, ReFrames        : 12 frames
Codec ID                         : V_MPEG4/ISO/AVC
Duration                         : 1h 55mn
Bit rate                         : 1 943 Kbps
Width                            : 808 pixels
Height                           : 436 pixels
Display aspect ratio             : 1.853
Frame rate                       : 23.976 fps
Color space                      : YUV
Chroma subsampling               : 4:2:0
Bit depth                        : 8 bits
Scan type                        : Progressive
Bits/(Pixel*Frame)               : 0.230
Stream size                      : 1.52 GiB (70%)
Writing library                  : x264 core 142 r2431+42 c69a006 tMod [8-bit@4:2:0 X86_64]
Encoding settings                : cabac=1 / ref=12 / deblock=1:-2:-2 / analyse=0x3:0x133 / me=umh / subme=11 / psy=1 / fade_compensate=0.00 / psy_rd=0.95:0.00 / mixed_ref=1 / me_range=48 / chroma_me=1 / trellis=2 / 8x8dct=1 / cqm=0 / deadzone=21,11 / fast_pskip=0 / chroma_qp_offset=-2 / threads=6 / lookahead_threads=1 / sliced_threads=0 / nr=0 / decimate=0 / interlaced=0 / bluray_compat=0 / constrained_intra=0 / fgo=0 / bframes=10 / b_pyramid=2 / b_adapt=2 / b_bias=0 / direct=3 / weightb=1 / open_gop=0 / weightp=2 / keyint=250 / keyint_min=23 / scenecut=40 / intra_refresh=0 / rc_lookahead=60 / rc=2pass / mbtree=0 / bitrate=1943 / ratetol=1.0 / qcomp=0.65 / qpmin=0:0:0 / qpmax=69:69:69 / qpstep=4 / cplxblur=20.0 / qblur=0.5 / vbv_maxrate=50000 / vbv_bufsize=62500 / nal_hrd=none / filler=0 / ip_ratio=1.30 / pb_ratio=1.20 / aq=4:0.80 / aq-sensitivity=10.00 / aq-factor=1.00:1.00:1.00 / aq2=0 / aq3=0
Language                         : English
Matrix coefficients              : BT.709
Audio #1
ID                               : 2
Format                           : AC-3
Format/Info                      : Audio Coding 3
Mode extension                   : CM (complete main)
Codec ID                         : A_AC3
Duration                         : 1h 55mn
Bit rate mode                    : Constant
Bit rate                         : 384 Kbps
Channel(s)                       : 6 channels
Channel positions                : Front: L C R, Side: L R, LFE
Sampling rate                    : 48.0 KHz
Bit depth                        : 16 bits
Compression mode                 : Lossy
Stream size                      : 316 MiB (14%)
Title                            : iTunes
Language                         : Russian
Audio #2
ID                               : 3
Format                           : AC-3
Format/Info                      : Audio Coding 3
Mode extension                   : CM (complete main)
Codec ID                         : A_AC3
Duration                         : 1h 55mn
Bit rate mode                    : Constant
Bit rate                         : 384 Kbps
Channel(s)                       : 6 channels
Channel positions                : Front: L C R, Side: L R, LFE
Sampling rate                    : 48.0 KHz
Bit depth                        : 16 bits
Compression mode                 : Lossy
Stream size                      : 316 MiB (14%)
Language                         : English
Menu
00:00:00.000                     : en:00:00:00.000
00:10:07.190                     : en:00:10:07.190
00:17:37.598                     : en:00:17:37.598
00:23:10.973                     : en:00:23:10.973
00:28:50.687                     : en:00:28:50.687
00:37:12.355                     : en:00:37:12.355
00:45:03.159                     : en:00:45:03.159
00:52:08.000                     : en:00:52:08.000
00:59:25.854                     : en:00:59:25.854
01:06:55.845                     : en:01:06:55.845
01:13:16.309                     : en:01:13:16.309
01:20:44.715                     : en:01:20:44.715
01:26:51.873                     : en:01:26:51.873
01:35:38.066                     : en:01:35:38.066
01:42:36.192                     : en:01:42:36.192
01:47:56.679                     : en:01:47:56.679
Знаете ли Вы, что...
  • Кинокомпания «Sony Pictures Entertainment» перед началом съемок пригласила оценить фильм американского кинокритика Тэда Бейера, основателя организации «Christian Film and Television Commission».
    Скриншоты
Скачать

Скачать торрент!

Как скачивать? · Что такое торрент? · Рейтинг и ограничения

Сайт не распространяет и не хранит электронные версии произведений, а лишь предоставляет доступ к создаваемому пользователями каталогу ссылок на торрент-файлы, которые содержат только списки хеш-сумм

[Профиль] [ЛС]
Показать сообщения:    
Ответить на тему

Текущее время: Сегодня 12:11

Часовой пояс: GMT + 4



Вы не можете начинать темы
Вы не можете отвечать на сообщения
Вы не можете редактировать свои сообщения
Вы не можете удалять свои сообщения
Вы не можете голосовать в опросах
Вы не можете прикреплять файлы к сообщениям
Вы не можете скачивать файлы