Грэйс / Grace (Джефф Чан / Jeff Chan) [2014, США, Канада, ужасы, триллер, WEB-DLRip] MVO (iTunes)

Ответить на тему
 
Автор Сообщение

user ®

Стаж: 7 лет 7 месяцев

Сообщений: 20008

Пост Пост: #1 от 27-Ноя-2014 02:00

[Цитировать]

Грэйс / Grace
Страна: США, Канада
Жанр: ужасы, триллер
Год выпуска: 2014
Продолжительность: 01:27:34-Перевод: Профессиональный (многоголосый закадровый) [iTunes]
Cубтитры: нет
Режиссер: Джефф Чан / Jeff Chan-В ролях: Алексия Фаст, Дэниэл Арнольд, Мадлен Артур, Джошуа Дж Баллард, Марго Бернер, Наташа Барнетт, Алан Дэйл, Бретт Дир, Алексис Нэп, Джоэл Мур-Описание: Грейс, наивная первокурсница-девственница, которая пытается противопоставить свою религиозность культуре кампуса, но несмотря на ее благочестивость, зло захватывает ее тело и погружает ее в хаос..-Сэмпл: http://sendfile.su/1053365
Качество видео: WEB-DLRip
Формат видео: AVI
Видео: xvid, 720х400, 16:9, 23,976 кадра/сек, 1370 Кбит/сек
Аудио: AC-3, 48,0 КГц, 192 Кбит/сек, 2 канала Front: L R
MediaInfo
Формат : AVI
Формат/Информация : Audio Video Interleave
Размер файла : 985 Мбайт
Продолжительность : 1 ч. 27 м.
Общий поток : 1573 Кбит/сек
Программа кодирования : Lavf54.63.104
Видео
Идентификатор : 0
Формат : xvid
Идентификатор кодека : xvid
Продолжительность : 1 ч. 27 м.
Битрейт : 1370 Кбит/сек
Ширина : 720 пикселей
Высота : 400 пикселей
Соотношение сторон : 16:9
Частота кадров : 23,976 кадра/сек
Бит/(Пиксели*Кадры) : 0.198
Размер потока : 858 Мбайт (87%)
Аудио
Идентификатор : 1
Формат : AC-3
Формат/Информация : Audio Coding 3
Расширение режима : CM (complete main)
Параметр Endianness формата : Big
Идентификатор кодека : 2000
Продолжительность : 1 ч. 27 м.
Вид битрейта : Постоянный
Битрейт : 192 Кбит/сек
Каналы : 2 канала
Расположение каналов : Front: L R
Частота : 48,0 КГц
Битовая глубина : 16 бит
Метод сжатия : С потерями
Размер потока : 120 Мбайт (12%)
Выравнивание : Соединение по промежуткам
Продолжительность промежутка : 32 мс. (0,77 видеокадр)
Скриншот c названием фильма Скриншоты
Скачать

Скачать торрент!

Как скачивать? · Что такое торрент? · Рейтинг и ограничения

Сайт не распространяет и не хранит электронные версии произведений, а лишь предоставляет доступ к создаваемому пользователями каталогу ссылок на торрент-файлы, которые содержат только списки хеш-сумм

[Профиль] [ЛС]
Показать сообщения:    
Ответить на тему

Текущее время: Сегодня 00:07

Часовой пояс: GMT + 4



Вы не можете начинать темы
Вы не можете отвечать на сообщения
Вы не можете редактировать свои сообщения
Вы не можете удалять свои сообщения
Вы не можете голосовать в опросах
Вы не можете прикреплять файлы к сообщениям
Вы не можете скачивать файлы