Поездка на Феррари / Хочу Феррари / Ferrari Ki Sawaari (Раджеш Мапускар / Rajesh Mapuskar) [2012, Индия, Криминал, семейный, спорт, HDRip] + Sub Rus

Ответить на тему
 
Автор Сообщение

user ®

Стаж: 12 лет

Сообщений: 15092

Пост Пост: #1 от 26-Ноя-2014 22:50

[Цитировать]

Поездка на Феррари / Хочу Феррари / Ferrari Ki Sawaari
Страна: Индия
Жанр: Криминал, семейный, спорт
Год выпуска: 2012
Продолжительность: 02:19:47
Перевод: Субтитры (tonyvika)
Cубтитры: русские
Оригинальная аудиодорожка: хинди
Режиссер: Раджеш Мапускар / Rajesh Mapuskar
В ролях: Шарман Джоши, Боман Ирани, Пареш Раваль, Видья Балан, Дипак Ширке, Сима Пахва, Сатьядип Мисра, Аакаш Дабхаде, Нилеш Дивекар
Описание: Отец-одиночка хочет осуществить мечту своего 8-летнего сына, талантливого игрока в крикет, поехать в лагерь Лордов. Но в семье нет денег на оплату обучения за границей. Ради любимого сына честный и прямолинейный Руси решается на небольшой нечестный поступок - он на один день берет красивый красный Ferrari, принадлежащий Сачину Тендулкару. За аренду машины ему обещают заветные деньги, однако есть одна загвоздка - он не сообщает об этом его легендарному владельцу. Как только Руси оказывается за рулем Ferrari, начинается настоящее светопреставление.
Доп. информация: Перевод и редакция субтитров: tonyvika (Спасибо!)
Исходник BDRip (1080p)
Сэмпл: http://multi-up.com/1015613
Качество видео: HDRip
Формат видео: AVI
Видео: XviD build 50, 720x304 (2.37:1), 24.000 fps, 1299 kbps avg
Аудио: Hindi AC3 Dolby Digital, 48 kHz, 2/0 (L,R) ch, 192.00 kbps
Формат субтитров: softsub (SRT)
Доп. информация о субтитрах: Автор: tonyvika
MediaInfo
General
Complete name : D:\Poezdka.na.Ferari.2012.HDRip-Dego\Poezdka.na.Ferari.2012.HDRip-Dego.avi
Format : AVI
Format/Info : Audio Video Interleave
File size : 1.47 GiB
Duration : 2h 19mn
Overall bit rate : 1 501 Kbps
Writing application : VirtualDubMod 1.5.10.2 (build 2540/release)
Writing library : VirtualDubMod build 2540/release
Video
ID : 0
Format : MPEG-4 Visual
Format profile : AdvancedSimple@L5
Format settings, BVOP : Yes
Format settings, QPel : No
Format settings, GMC : No warppoints
Format settings, Matrix : Custom
Codec ID : XVID
Codec ID/Hint : XviD
Duration : 2h 19mn
Bit rate : 1 300 Kbps
Width : 720 pixels
Height : 304 pixels
Display aspect ratio : 2.35
Frame rate : 24.000 fps
Resolution : 24 bits
Colorimetry : 4:2:0
Scan type : Progressive
Bits/(Pixel*Frame) : 0.247
Stream size : 1.27 GiB (87%)
Writing library : XviD 1.2.1 (UTC 2008-12-04)
Audio
ID : 1
Format : AC-3
Format/Info : Audio Coding 3
Codec ID : 2000
Duration : 2h 19mn
Bit rate mode : Constant
Bit rate : 192 Kbps
Channel(s) : 2 channels
Channel positions : L R
Sampling rate : 48.0 KHz
Stream size : 192 MiB (13%)
Alignment : Split accross interleaves
Interleave, duration : 42 ms (1.00 video frame)
Interleave, preload duration : 500 ms
Скриншот c названием фильма Скриншоты Фрагмент субтитров
25
00:04:08,954 --> 00:04:11,112
Отлично принял мяч, Каёзе
26
00:04:11,754 --> 00:04:13,310
Говорят, мячи строят победу
27
00:04:13,387 --> 00:04:16,080
И мяч Каё, определенно, изменил ход игры
28
00:04:16,387 --> 00:04:17,250
Линия
29
00:04:17,953 --> 00:04:20,146
Не считается, сэр
30
00:04:21,354 --> 00:04:23,149
Моя нога была на линии, сэр
31
00:04:23,753 --> 00:04:24,810
Сэр, когда я поймал мяч...
32
00:04:25,053 --> 00:04:26,985
моя нога была на разделительной линии
33
00:04:27,920 --> 00:04:29,385
Давайте, выше нос!
34
00:04:41,686 --> 00:04:43,810
Папа, знаешь, как хорошо я сегодня играл?
35
00:04:44,086 --> 00:04:45,017
Я разрушил 7 калиток
36
00:04:45,685 --> 00:04:47,810
Ты слушаешь, пап?
- Слушаю, Каё
37
00:04:48,186 --> 00:04:50,617
Мяч летел так высоко и далеко
38
00:04:51,019 --> 00:04:52,848
Я бежал очень быстро к мячу...
Прыгнул..
39
00:04:53,619 --> 00:04:55,176
Фантастика!
- И поймал!
40
00:04:55,786 --> 00:04:56,809
Папа, там был "красный"
41
00:04:56,886 --> 00:04:57,977
O, нет!
42
00:04:58,652 --> 00:05:00,743
Прости, сынок.
- Нет, папа, ты прости.
43
00:05:00,852 --> 00:05:03,010
Видишь полицейского?
44
00:05:03,385 --> 00:05:05,351
Нет, папа, ни одного
45
00:05:06,652 --> 00:05:08,810
Как ты мог, Рузи...
Прости
46
00:05:17,152 --> 00:05:20,140
Об Вагмаре...
Что это за имя такое?
47
00:05:20,251 --> 00:05:21,376
Доброе утро, сэр
48
00:05:21,651 --> 00:05:22,309
Да?
49
00:05:22,718 --> 00:05:26,013
Сэр, я проехал на "красный".
Могу, я, пожалуйста, оплатить штраф?
50
00:05:26,184 --> 00:05:28,207
Вы не заплатили полицейскому на месте?
51
00:05:28,718 --> 00:05:30,274
Там никого не было
Скачать

Скачать торрент! Поездка на Феррари / Хочу Феррари / Ferrari Ki Sawaari (Раджеш Мапускар / Rajesh Mapuskar) [2012, Индия, Криминал, семейный, спорт, HDRip] + Sub Rus

Как скачивать? · Что такое торрент? · Рейтинг и ограничения

Сайт не распространяет и не хранит электронные версии произведений, а лишь предоставляет доступ к создаваемому пользователями каталогу ссылок на торрент-файлы, которые содержат только списки хеш-сумм

[Профиль] [ЛС]
Показать сообщения:    
Ответить на тему

Текущее время: Сегодня 01:26

Часовой пояс: GMT + 4



Вы не можете начинать темы
Вы не можете отвечать на сообщения
Вы не можете редактировать свои сообщения
Вы не можете удалять свои сообщения
Вы не можете голосовать в опросах
Вы не можете прикреплять файлы к сообщениям
Вы не можете скачивать файлы