Черепашки-ниндзя / Teenage Mutant Ninja Turtles (Джонатан Либесман / Jonathan Liebesman) [2014, США, Фантастика, фэнтези, боевик, комедия, приключения, WEB-DL] Dub + Sub Eng + Original Eng

Ответить на тему
 
Автор Сообщение

user ®

Стаж: 7 лет 7 месяцев

Сообщений: 20008

Пост Пост: #1 от 26-Ноя-2014 02:00

[Цитировать]

Черепашки-ниндзя / Teenage Mutant Ninja Turtles
Страна: США
Жанр: Фантастика, фэнтези, боевик, комедия, приключения
Год выпуска: 2014
Продолжительность: 01:41:52
Перевод: Профессиональный (Дублированный)
Cубтитры: английские
Оригинальная аудиодорожка: английский
Режиссер: Джонатан Либесман / Jonathan Liebesman
В ролях: Меган Фокс, Уилл Арнетт, Уильям Фихтнер, Алан Ричсон, Ноэль Фишер, Пит Пложек, Джонни Ноксвил, Джереми Ховард, Дэнни Вудберн, Тони Шэлуб
Описание: На город Нью-Йорк совершил нападение вечный враг черепашек, учителя Спинтера, Эйприл и других жителей города – Шредер. Вместе с ним на стороне зла сражаются легионы из клана Фут. Наиболее страшным является то, что противостоять им никому не под силу, ведь Шредеру вместе с армией клана Ноги удается держать е только политику, но еще и местные правоохранительные органы. И ближайшее будущее уже даже не представляется безопасным, радостным и спокойным, однако из-под земли, прямо из городской канализации выходят спасители мирных граждан – черепашки ниндзя. Рептилии-мутант сотрудничают с репортером городского канала, которая очень прочно контактирует с черепашками – это Эйприл О’Нил, этой команде просто необходимо разгадать план, придуманный Шредером, дабы не дать ему реализовать его от начала и до конца.
Сэмпл: http://sendfile.su/1052059
Качество видео: WEB-DL 1080p
Формат видео: MKV
Видео: MPEG-4 AVC, 1912x796, 23.97fps ,4221 Кбит/с
Аудио: AC-3, 48.0 KHz, 192 Kbps, 2 channels, Russian
Аудио 2: AC-3, 48.0 KHz, 384 Kbps, 6 channels, English
MediaInfo
General
Unique ID : 183842330246612838237153415054712823638 (0x8A4EBEB0E6893703A3D4FA1CFAAEDF56)
Complete name : I:\torrents\Cherepashki.Ninz9.2014.D.WEBDL.1080p_.mkv
Format : Matroska
Format version : Version 4 / Version 2
File size : 3.47 GiB
Duration : 1h 41mn
Overall bit rate : 4 891 Kbps
Movie name : EVO
Encoded date : UTC 2014-10-30 06:27:28
Writing application : mkvmerge v7.0.0 ('Where We Going') 64bit built on Jun 9 2014 15:16:27
Writing library : libebml v1.3.0 + libmatroska v1.4.1
_STATISTICS_WRITING_APP : mkvmerge v7.0.0 ('Where We Going') 64bit built on Jun 9 2014 15:16:27
_STATISTICS_WRITING_DATE_UTC : 2014-10-30 06:27:28
_STATISTICS_TAGS : BPS DURATION NUMBER_OF_FRAMES NUMBER_OF_BYTES
DURATION : 01:41:30.880000000
NUMBER_OF_FRAMES : 190340
NUMBER_OF_BYTES : 146181120
Attachment : Yes / Yes / Yes / Yes
Video
ID : 1
Format : AVC
Format/Info : Advanced Video Codec
Format profile : High@L4.0
Format settings, CABAC : Yes
Format settings, ReFrames : 5 frames
Codec ID : V_MPEG4/ISO/AVC
Duration : 1h 41mn
Bit rate : 4 217 Kbps
Width : 1 912 pixels
Height : 796 pixels
Display aspect ratio : 2.40:1
Frame rate : 23.976 fps
Color space : YUV
Chroma subsampling : 4:2:0
Bit depth : 8 bits
Scan type : Progressive
Bits/(Pixel*Frame) : 0.116
Stream size : 2.99 GiB (86%)
Language : English
Default : Yes
Forced : No
Color primaries : BT.709-5, BT.1361, IEC 61966-2-4, SMPTE RP177
Transfer characteristics : BT.709-5, BT.1361
Matrix coefficients : BT.709-5, BT.1361, IEC 61966-2-4 709, SMPTE RP177
Audio #1
ID : 2
Format : AC-3
Format/Info : Audio Coding 3
Mode extension : CM (complete main)
Codec ID : A_AC3
Duration : 1h 41mn
Bit rate mode : Constant
Bit rate : 192 Kbps
Channel(s) : 2 channels
Channel positions : Front: L R
Sampling rate : 48.0 KHz
Bit depth : 16 bits
Compression mode : Lossy
Stream size : 139 MiB (4%)
Default : Yes
Forced : No
Audio #2
ID : 3
Format : AC-3
Format/Info : Audio Coding 3
Mode extension : CM (complete main)
Codec ID : A_AC3
Duration : 1h 41mn
Bit rate mode : Constant
Bit rate : 384 Kbps
Channel(s) : 6 channels
Channel positions : Front: L C R, Side: L R, LFE
Sampling rate : 48.0 KHz
Bit depth : 16 bits
Compression mode : Lossy
Stream size : 279 MiB (8%)
Title : Teenage.Mutant.Ninja.Turtles.2014.1080p.WEB-DL.DD5.1.H264-RARBG
Language : English
Default : No
Forced : No
Text
ID : 4
Format : UTF-8
Codec ID : S_TEXT/UTF8
Codec ID/Info : UTF-8 Plain Text
Language : English
Default : No
Forced : No
Menu
00:00:00.000 : en:Chapter 1
00:02:42.000 : en:Chapter 2
00:06:00.000 : en:Chapter 3
00:11:51.000 : en:Chapter 4
00:16:01.000 : en:Chapter 5
00:22:02.000 : en:Chapter 6
00:28:22.000 : en:Chapter 7
00:34:02.000 : en:Chapter 8
00:38:04.000 : en:Chapter 9
00:42:10.000 : en:Chapter 10
00:48:36.000 : en:Chapter 11
00:55:46.000 : en:Chapter 12
01:00:44.000 : en:Chapter 13
01:07:46.000 : en:Chapter 14
01:15:30.000 : en:Chapter 15
01:24:11.000 : en:Chapter 16
01:30:17.000 : en:Chapter 17
01:34:13.000 : en:Chapter 18
Скриншот c названием фильма Скриншоты
Скачать

Скачать торрент!

Как скачивать? · Что такое торрент? · Рейтинг и ограничения

Сайт не распространяет и не хранит электронные версии произведений, а лишь предоставляет доступ к создаваемому пользователями каталогу ссылок на торрент-файлы, которые содержат только списки хеш-сумм

[Профиль] [ЛС]
Показать сообщения:    
Ответить на тему

Текущее время: Сегодня 06:01

Часовой пояс: GMT + 4



Вы не можете начинать темы
Вы не можете отвечать на сообщения
Вы не можете редактировать свои сообщения
Вы не можете удалять свои сообщения
Вы не можете голосовать в опросах
Вы не можете прикреплять файлы к сообщениям
Вы не можете скачивать файлы