Игра на высоте / When the Game Stands Tall (Томас Картер / Thomas Carterr) [2014, США, драма, спорт, BDRip 720p] MVO (iTunes) + Sub Eng + Original Eng

Ответить на тему
 
Автор Сообщение

user ®

Стаж: 7 лет 7 месяцев

Сообщений: 20008

Пост Пост: #1 от 26-Ноя-2014 02:00

[Цитировать]

Игра на высоте / When the Game Stands Tall
Страна: США
Жанр: драма, спорт
Год выпуска: 2014
Продолжительность: 01:55:08
Перевод: Профессиональный многоголосый iTunes
Cубтитры: английские
Оригинальная аудиодорожка: английский
Режиссер: Томас Картер / Thomas Carterr
В ролях: Джеймс Кэвизел, Александр Людвиг, Майкл Чиклис, Лора Дерн, Клэнси Браун, Сер’Дариус Блэйн, Стивен Джеймс, Мэттью Даддарио, Джо Массинджилл, Джесси Ашер
Описание: Фильм основан на реальных событиях. Это история футбольного тренера, благодаря которому безызвестная школьная футбольная команда провела победную серию из 151-й игры.

Тип релиза: BDRip 720p
Контейнер: MKV
Видео: MPEG-4 AVC, 6676 Кбит/с, 1280x694, 23,976 fps
Аудио: Rus, AC3, 384 kb/s (6 ch), 48 kHz
Аудио 2: Eng, DTS, 1510 kb/s (6 ch), 48 kHz
Формат субтитров: softsub (SRT)
MediaInfo
Формат : Matroska
Версия формата : Version 4 / Version 2
Размер файла : 7,03 Гбайт
Продолжительность : 1 ч. 55 м.
Общий поток : 8744 Кбит/сек
Название фильма : Tonik
Дата кодирования : UTC 2014-11-23 06:29:28
Программа кодирования : mkvmerge v7.1.0 ('Good Love') 64bit built on Jul 27 2014 13:06:55
Библиотека кодирования : libebml v1.3.0 + libmatroska v1.4.1
_STATISTICS_WRITING_APP : mkvmerge v7.1.0 ('Good Love') 64bit built on Jul 27 2014 13:06:55
_STATISTICS_WRITING_DATE_UTC : 2014-11-23 06:29:28
_STATISTICS_TAGS : BPS DURATION NUMBER_OF_FRAMES NUMBER_OF_BYTES
DURATION : 01:52:09.431000000
NUMBER_OF_FRAMES : 1811
NUMBER_OF_BYTES : 70920
Видео
Идентификатор : 1
Формат : AVC
Формат/Информация : Advanced Video Codec
Профиль формата : High@L4.1
Параметр CABAC формата : Да
Параметр ReFrames формата : 9 кадров
Идентификатор кодека : V_MPEG4/ISO/AVC
Продолжительность : 1 ч. 55 м.
Битрейт : 6676 Кбит/сек
Ширина : 1280 пикселей
Высота : 694 пикселя
Соотношение сторон : 1,85:1
Частота кадров : 23,976 кадра/сек
Цветовое пространство : YUV
Субдискретизация насыщенности : 4:2:0
Битовая глубина : 8 бит
Тип развёртки : Прогрессивная
Бит/(Пиксели*Кадры) : 0.313
Размер потока : 5,37 Гбайт (76%)
Библиотека кодирования : x264 core 142 r2431kMod ac76440
Настройки программы : cabac=1 / ref=9 / deblock=1:-3:-3 / analyse=0x3:0x133 / me=umh / subme=10 / psy=1 / fade_compensate=0.00 / psy_rd=1.05:0.00 / mixed_ref=1 / me_range=24 / chroma_me=1 / trellis=2 / 8x8dct=1 / cqm=0 / deadzone=21,11 / fast_pskip=0 / chroma_qp_offset=-2 / threads=24 / lookahead_threads=4 / sliced_threads=0 / nr=0 / decimate=0 / interlaced=0 / bluray_compat=0 / constrained_intra=0 / fgo=0 / bframes=9 / b_pyramid=2 / b_adapt=2 / b_bias=0 / direct=3 / weightb=1 / open_gop=0 / weightp=2 / keyint=250 / keyint_min=23 / scenecut=40 / intra_refresh=0 / rc=crf / mbtree=0 / crf=15.3000 / qcomp=0.65 / qpmin=0 / qpmax=69 / qpstep=4 / ip_ratio=1.30 / pb_ratio=1.20 / aq=1:0.80
Язык : English
Default : Да
Forced : Нет
_STATISTICS_WRITING_APP : mkvmerge v7.1.0 ('Good Love') 64bit built on Jul 27 2014 13:06:55
_STATISTICS_WRITING_DATE_UTC : 2014-11-23 06:29:28
_STATISTICS_TAGS : BPS DURATION NUMBER_OF_FRAMES NUMBER_OF_BYTES
DURATION : 01:55:09.862000000
NUMBER_OF_FRAMES : 165671
NUMBER_OF_BYTES : 5914870879
Аудио #1
Идентификатор : 2
Формат : AC-3
Формат/Информация : Audio Coding 3
Расширение режима : CM (complete main)
Параметр Endianness формата : Big
Идентификатор кодека : A_AC3
Продолжительность : 1 ч. 55 м.
Вид битрейта : Постоянный
Битрейт : 384 Кбит/сек
Каналы : 6 каналов
Расположение каналов : Front: L C R, Side: L R, LFE
Частота : 48,0 КГц
Битовая глубина : 16 бит
Метод сжатия : С потерями
Задержка видео : 944 мс.
Размер потока : 316 Мбайт (4%)
Заголовок : iTunes
Язык : Russian
Default : Да
Forced : Нет
Аудио #2
Идентификатор : 3
Формат : DTS
Формат/Информация : Digital Theater Systems
Идентификатор кодека : A_DTS
Продолжительность : 1 ч. 55 м.
Вид битрейта : Постоянный
Битрейт : 1510 Кбит/сек
Каналы : 6 каналов
Расположение каналов : Front: L C R, Side: L R, LFE
Частота : 48,0 КГц
Битовая глубина : 24 бит
Метод сжатия : С потерями
Размер потока : 1,21 Гбайт (17%)
Язык : English
Default : Нет
Forced : Нет
Текст #1
Идентификатор : 4
Формат : UTF-8
Идентификатор кодека : S_TEXT/UTF8
Идентификатор кодека/Информация : UTF-8 Plain Text
Язык : English
Default : Нет
Forced : Нет
Текст #2
Идентификатор : 5
Формат : UTF-8
Идентификатор кодека : S_TEXT/UTF8
Идентификатор кодека/Информация : UTF-8 Plain Text
Заголовок : SDH
Язык : English
Default : Нет
Forced : Нет
Меню
00:00:00.000 : en:00:00:00.000
00:10:07.190 : en:00:10:07.190
00:17:37.598 : en:00:17:37.598
00:23:10.973 : en:00:23:10.973
00:28:50.687 : en:00:28:50.687
00:37:12.355 : en:00:37:12.355
00:45:03.159 : en:00:45:03.159
00:52:08.000 : en:00:52:08.000
00:59:25.854 : en:00:59:25.854
01:06:55.845 : en:01:06:55.845
01:13:16.309 : en:01:13:16.309
01:20:44.715 : en:01:20:44.715
01:26:51.873 : en:01:26:51.873
01:35:38.066 : en:01:35:38.066
01:42:36.192 : en:01:42:36.192
01:47:56.679 : en:01:47:56.679
Скриншоты 23.11.14 в 22:55 торрент файл обновлён. Устранён рассинхрон.
Скачать

Скачать торрент!

Как скачивать? · Что такое торрент? · Рейтинг и ограничения

Сайт не распространяет и не хранит электронные версии произведений, а лишь предоставляет доступ к создаваемому пользователями каталогу ссылок на торрент-файлы, которые содержат только списки хеш-сумм

[Профиль] [ЛС]
Показать сообщения:    
Ответить на тему

Текущее время: Сегодня 19:55

Часовой пояс: GMT + 4



Вы не можете начинать темы
Вы не можете отвечать на сообщения
Вы не можете редактировать свои сообщения
Вы не можете удалять свои сообщения
Вы не можете голосовать в опросах
Вы не можете прикреплять файлы к сообщениям
Вы не можете скачивать файлы