Земля Хо! / Land Ho! (Аарон Кац / Aaron Katz, Марта Стефенс / Martha Stephens) [2014, Исландия, США, комедия, приключения, BDRip 720p] MVO (iTunes) + Sub Eng + Original Eng

Ответить на тему
 
Автор Сообщение

user ®

Стаж: 7 лет 7 месяцев

Сообщений: 20008

Пост Пост: #1 от 26-Ноя-2014 02:00

[Цитировать]

Земля Хо!Land Ho!«Come party with these guys!»- Страна: Исландия, США
Жанр: комедия, приключения
Год выпуска: 2014
Продолжительность: 01:35:08
Перевод: Профессиональный (многоголосый закадровый) iTunes
Cубтитры: английские (full, SDH)
Оригинальная аудиодорожка: английский
Режиссер: Аарон Кац / Aaron Katz, Марта Стефенс / Martha Stephens
В ролях: Эрл Линн Нельсон. Пол Инхорн, Даниэль Гильвасон, Трудюр Кристьяунсдоуттир, Кэрри Круз, Элизабет МакКи, Арнар Гудмундсон, Магнус Кр. Гудмундсон, Бьярни Триггвасон
Описание: История о том, как бывшие зять и шурин отправились в автомобильное путешествие по Исландии.

Рип от VietHD!
Тип релиза: BDRip 720p
Контейнер: MKV
Видео: AVC, 1280x720 (16:9), 9273 kbps, 23,976 fps, 0,420 bpp
Аудио №1: русский / AC3 / 5.1 / 48 kHz / 384 kbps / 16 bit |iTunes|
Аудио №2: английский / DTS / 5.1 / 48 kHz / 1510 kbps / 24 bit
Навигация по главам: есть
Формат субтитров: softsub (SRT)

MediaInfo
x264 : frame I:734   Avg QP:12.85  size:150706
x264 : frame P:26044 Avg QP:14.74  size: 75027
x264 : frame B:110094 Avg QP:16.49  size: 42811
x264 : consecutive B-frames:  0.8%  1.2%  2.4% 21.3% 14.6% 36.5%  9.7% 10.3%  2.4%  0.8%
Format                           : Matroska
Format version                   : Version 4 / Version 2
File size                        : 7.57 GiB
Duration                         : 1h 35mn
Overall bit rate                 : 11.4 Mbps
Encoded date                     : UTC 2014-11-24 13:27:58
Writing application              : mkvmerge v6.8.0 ('Theme for Great Cities') 64bit built on Mar  2 2014 21:34:26
Writing library                  : libebml v1.3.0 + libmatroska v1.4.1
Video
ID                               : 1
Format                           : AVC
Format/Info                      : Advanced Video Codec
Format profile                   : High@L4.1
Format settings, CABAC           : Yes
Format settings, ReFrames        : 9 frames
Codec ID                         : V_MPEG4/ISO/AVC
Duration                         : 1h 35mn
Bit rate                         : 9 274 Kbps
Width                            : 1 280 pixels
Height                           : 720 pixels
Display aspect ratio             : 16:9
Frame rate                       : 23.976 fps
Color space                      : YUV
Chroma subsampling               : 4:2:0
Bit depth                        : 8 bits
Scan type                        : Progressive
Bits/(Pixel*Frame)               : 0.420
Stream size                      : 6.16 GiB (81%)
Writing library                  : x264 core 142 r2431+42 c69a006 tMod [8-bit@4:2:0 X86_64]
Encoding settings                : cabac=1 / ref=9 / deblock=1:-3:-3 / analyse=0x3:0x133 / me=umh / subme=10 / psy=1 / fade_compensate=0.00 / psy_rd=1.07:0.00 / mixed_ref=1 / me_range=24 / chroma_me=1 / trellis=2 / 8x8dct=1 / cqm=0 / deadzone=21,11 / fast_pskip=1 / chroma_qp_offset=-2 / threads=12 / lookahead_threads=2 / sliced_threads=0 / nr=0 / decimate=1 / interlaced=0 / bluray_compat=0 / constrained_intra=0 / fgo=0 / bframes=9 / b_pyramid=2 / b_adapt=2 / b_bias=0 / direct=3 / weightb=1 / open_gop=0 / weightp=2 / keyint=250 / keyint_min=23 / scenecut=40 / intra_refresh=0 / rc=crf / mbtree=0 / crf=16.0000 / qcomp=0.65 / qpmin=0:0:0 / qpmax=69:69:69 / qpstep=4 / ip_ratio=1.40 / pb_ratio=1.20 / aq=4:0.72 / aq-sensitivity=10.00 / aq-factor=1.00:1.00:1.00 / aq2=0 / aq3=0
Language                         : English
Matrix coefficients              : BT.709-5, BT.1361, IEC 61966-2-4 709, SMPTE RP177
Audio #1
ID                               : 2
Format                           : AC-3
Format/Info                      : Audio Coding 3
Mode extension                   : CM (complete main)
Codec ID                         : A_AC3
Duration                         : 1h 35mn
Bit rate mode                    : Constant
Bit rate                         : 384 Kbps
Channel(s)                       : 6 channels
Channel positions                : Front: L C R, Side: L R, LFE
Sampling rate                    : 48.0 KHz
Bit depth                        : 16 bits
Compression mode                 : Lossy
Stream size                      : 261 MiB (3%)
Title                            : iTunes Russia
Language                         : Russian
Audio #2
ID                               : 3
Format                           : DTS
Format/Info                      : Digital Theater Systems
Codec ID                         : A_DTS
Duration                         : 1h 35mn
Bit rate mode                    : Constant
Bit rate                         : 1 510 Kbps
Channel(s)                       : 6 channels
Channel positions                : Front: L C R, Side: L R, LFE
Sampling rate                    : 48.0 KHz
Bit depth                        : 24 bits
Compression mode                 : Lossy
Stream size                      : 1.00 GiB (13%)
Language                         : English
Text #1
ID                               : 4
Format                           : UTF-8
Codec ID                         : S_TEXT/UTF8
Codec ID/Info                    : UTF-8 Plain Text
Title                            : English
Language                         : English
Text #2
ID                               : 5
Format                           : UTF-8
Codec ID                         : S_TEXT/UTF8
Codec ID/Info                    : UTF-8 Plain Text
Title                            : English SDH
Language                         : English
Menu
00:00:00.000                     : en:00:00:00.000
00:05:51.101                     : en:00:05:51.101
00:14:32.038                     : en:00:14:32.038
00:20:28.727                     : en:00:20:28.727
00:25:08.090                     : en:00:25:08.090
00:31:11.578                     : en:00:31:11.578
00:37:09.727                     : en:00:37:09.727
00:42:31.174                     : en:00:42:31.174
00:48:55.641                     : en:00:48:55.641
00:54:39.276                     : en:00:54:39.276
01:00:14.986                     : en:01:00:14.986
01:05:03.942                     : en:01:05:03.942
01:11:54.977                     : en:01:11:54.977
01:18:10.019                     : en:01:18:10.019
01:22:58.223                     : en:01:22:58.223
01:26:36.274                     : en:01:26:36.274
NOTES
Fillmargins & BalanceBorders were applied in some range
Скриншоты
Source vs Encode

Скачать

Скачать торрент!

Как скачивать? · Что такое торрент? · Рейтинг и ограничения

Сайт не распространяет и не хранит электронные версии произведений, а лишь предоставляет доступ к создаваемому пользователями каталогу ссылок на торрент-файлы, которые содержат только списки хеш-сумм

[Профиль] [ЛС]
Показать сообщения:    
Ответить на тему

Текущее время: Сегодня 18:15

Часовой пояс: GMT + 4



Вы не можете начинать темы
Вы не можете отвечать на сообщения
Вы не можете редактировать свои сообщения
Вы не можете удалять свои сообщения
Вы не можете голосовать в опросах
Вы не можете прикреплять файлы к сообщениям
Вы не можете скачивать файлы