Операция "Подсолнух" / Operation Sunflower (Авраам Кушнир / Avraham Kushnir) [2014, Израиль, Франция, драма, история, HDTVRip] Sub Rus + Original Heb

Ответить на тему
 
Автор Сообщение

user ®

Стаж: 7 лет 7 месяцев

Сообщений: 20008

Пост Пост: #1 от 26-Ноя-2014 02:00

[Цитировать]

Операция "Подсолнух" / Operation Sunflower / Mivtza Hamaniya
Страна: Израиль, Франция
Жанр: драма, история
Год выпуска: 2014
Продолжительность: 01:42:41
Перевод: Субтитры
Cубтитры: русские (softsub), иврит (hardsub)
Оригинальная аудиодорожка: иврит, французский, немецкий, английский
Режиссер: Авраам Кушнир / Avraham Kushnir
В ролях: Барух Бренер, Йорам Гаон, Цуфит Грант, Даниэла Картес
Описание: В конце 50-х годов израильская разведка получает информацию о том, что Советский Союз заключил секретные договоры с Египтом и Сирией о поставках крупнейших партий вооружения, достаточных для уничтожения Израиля. Премьер-министр Израиля Бен-Гурион решает, что эффективным способом сдерживания арабской агрессии может стать разработка собственного ядерного оружия. Руководство научными исследованиями поручается талантливому специалисту в области ядерной физики доктору Файербергу. В исследовательскую группу входят также три молодых учёных-докторанта.
Доп. информация: КиноПоиск, IMDb
Сэмпл: http://www.mediafire.com/watch/786bk9508p5xt5t/Samp...nflower_2014.avi
Качество видео: HDTVRip
Формат видео: AVI
Видео: Xvid 624х352 16:9 25 кадров/сек 1814 Кбит/сек
Аудио: MP3 48 КГц 2 канала 128 Кбит/сек
Формат субтитров: softsub (ASS)
Образец субтитров
Dialogue: 0,0:07:39.45,0:07:41.61,Default,,0,0,0,,Хельмут Моль вышел на связь.
Dialogue: 0,0:07:42.09,0:07:45.72,Default,,0,0,0,,- Он хочет встретиться с тобой.\N- Хельмут Моль?
Dialogue: 0,0:07:48.37,0:07:50.10,Default,,0,0,0,,Этого не может быть.
Dialogue: 0,0:07:51.15,0:07:53.22,Default,,0,0,0,,Он не хотел встречаться с нами.
Dialogue: 0,0:07:53.25,0:07:55.30,Default,,0,0,0,,Ты знаешь, как мы пытались.
Dialogue: 0,0:07:55.34,0:07:58.24,Default,,0,0,0,,Он хочет срочно встретиться с тобой завтра.
Dialogue: 0,0:07:58.28,0:07:59.90,Default,,0,0,0,,У него есть условия?
Dialogue: 0,0:07:59.94,0:08:04.13,Default,,0,0,0,,Это произойдёт в Париже и только с шефом "Моссада".
Dialogue: 0,0:08:05.20,0:08:09.09,Default,,0,0,0,,Хельмут Моль, заместитель шефа германской разведки,
Dialogue: 0,0:08:09.82,0:08:12.53,Default,,0,0,0,,хочет встретиться со мной\Nи не на своей территории?
Dialogue: 0,0:08:12.56,0:08:14.77,Default,,0,0,0,,Послушай, если так,
Dialogue: 0,0:08:15.50,0:08:19.23,Default,,0,0,0,,- это очень серьёзно.\N- Да.
Dialogue: 0,0:08:21.57,0:08:24.47,Default,,0,0,0,,- Я еду.\N- Ясно.
Dialogue: 0,0:08:24.56,0:08:27.28,Default,,0,0,0,,Через 4 часа. Здесь билеты.
Dialogue: 0,0:08:36.94,0:08:40.39,Default,,0,0,0,,Здесь экземпляр соглашения\Nоб оружейной сделке, самой крупной
Dialogue: 0,0:08:40.42,0:08:43.16,Default,,0,0,0,,из всех, когда-либо имевших место\Nна Среднем Востоке.
Dialogue: 0,0:08:43.19,0:08:46.21,Default,,0,0,0,,Русские продают вооружение Египту и Сирии
Dialogue: 0,0:08:46.24,0:08:48.35,Default,,0,0,0,,в таком количестве,
Dialogue: 0,0:08:48.39,0:08:51.26,Default,,0,0,0,,которым можно уничтожить Израиль.
Dialogue: 0,0:08:51.76,0:08:55.39,Default,,0,0,0,,Им потребуется несколько лет,\Nчтобы освоить это оружие,
Dialogue: 0,0:08:55.43,0:08:57.67,Default,,0,0,0,,а потом - вам конец.
Dialogue: 0,0:09:00.04,0:09:01.72,Default,,0,0,0,,Спасибо.
Dialogue: 0,0:09:02.65,0:09:05.11,Default,,0,0,0,,Но, почему вы сообщаете мне это?
Dialogue: 0,0:09:05.99,0:09:08.21,Default,,0,0,0,,Благодарность не мне,
Dialogue: 0,0:09:08.24,0:09:10.70,Default,,0,0,0,,благодарность должна адресоваться Феликсу.\NЯ здесь из-за него.
Dialogue: 0,0:09:10.74,0:09:14.17,Default,,0,0,0,,Феликс? Кто это Феликс?
Dialogue: 0,0:09:14.21,0:09:18.56,Default,,0,0,0,,Феликс был самым лучшим моим другом в школе.
Dialogue: 0,0:09:19.31,0:09:21.29,Default,,0,0,0,,Он из ваших.
Dialogue: 0,0:09:22.53,0:09:26.65,Default,,0,0,0,,Он исчез в начале событий,\Nкоторые вы называете Катастрофой.
MediaInfo
Общее
Полное имя : Operation Sunflower 2014.avi
Формат : AVI
Формат/Информация : Audio Video Interleave
Размер файла : 1,40 Гбайт
Продолжительность : 1 ч. 42 м.
Режим общего битрейта : Переменный
Общий поток : 1945 Кбит/сек
Программа кодирования : VirtualDubMod 1.5.10.3 | www.virtualdub-fr.org || (build 2550/release)
Библиотека кодирования : VirtualDubMod build 2550/release
Видео
Идентификатор : 0
Формат : MPEG-4 Visual
Профиль формата : Advanced Simple@L5
Параметр BVOP формата : 2
Параметр QPel формата : Нет
Параметр GMC формата : Без точки перехода
Параметр матрицы формата : Default (H.263)
Режим смешивания : Сжатый битовый поток
Идентификатор кодека : XVID
Идентификатор кодека/Подсказка : XviD
Продолжительность : 1 ч. 42 м.
Битрейт : 1814 Кбит/сек
Ширина : 624 пикселя
Высота : 352 пикселя
Соотношение сторон : 16:9
Частота кадров : 25,000 кадров/сек
Цветовое пространство : YUV
Субдискретизация насыщенности : 4:2:0
Битовая глубина : 8 бит
Тип развёртки : Прогрессивная
Метод сжатия : С потерями
Бит/(Пиксели*Кадры) : 0.330
Размер потока : 1,30 Гбайт (93%)
Библиотека кодирования : XviD 64
Аудио
Идентификатор : 1
Формат : MPEG Audio
Версия формата : Version 1
Профиль формата : Layer 3
Режим : Joint stereo
Расширение режима : MS Stereo
Идентификатор кодека : 55
Идентификатор кодека/Подсказка : MP3
Продолжительность : 1 ч. 42 м.
Вид битрейта : Переменный
Битрейт : 118 Кбит/сек
Номинальный битрейт : 128 Кбит/сек
Каналы : 2 канала
Частота : 48,0 КГц
Метод сжатия : С потерями
Размер потока : 86,6 Мбайт (6%)
Выравнивание : Соединение по промежуткам
Продолжительность промежутка : 24 мс. (0,60 видеокадр)
Время предзагрузки промежутка : 472 мс.
Библиотека кодирования : LAME3.99r
Настройки программы : -m j -V 4 -q 2 -lowpass 17 --abr 128
Скриншот c названием фильма Скриншоты
Скачать

Скачать торрент!

Как скачивать? · Что такое торрент? · Рейтинг и ограничения

Сайт не распространяет и не хранит электронные версии произведений, а лишь предоставляет доступ к создаваемому пользователями каталогу ссылок на торрент-файлы, которые содержат только списки хеш-сумм

[Профиль] [ЛС]
Показать сообщения:    
Ответить на тему

Текущее время: Сегодня 07:06

Часовой пояс: GMT + 4



Вы не можете начинать темы
Вы не можете отвечать на сообщения
Вы не можете редактировать свои сообщения
Вы не можете удалять свои сообщения
Вы не можете голосовать в опросах
Вы не можете прикреплять файлы к сообщениям
Вы не можете скачивать файлы