Пуля исчезает / Призрачные пули / The Bullet Vanishes / Xiao shi de zi dan (Чи-Лын Ло / Chi-Leung Law) [2012, Китай, Гонконг, боевик, драма, детектив, HDRip] AVO [Ю.Сербин] + Original Chin + Sub (rus, eng)

Ответить на тему
 
Автор Сообщение

user ®

Стаж: 13 лет

Сообщений: 15071

Пост Пост: #1 от 25-Ноя-2014 10:15

[Цитировать]

Пуля исчезает / Призрачные пули / The Bullet Vanishes / Xiao shi de zi dan- -Страна: Китай, Гонконг
Жанр: боевик, драма, детектив
Год выпуска: 2012
Продолжительность: 01:47:45-Перевод: Авторский (одноголосый закадровый) [Ю.Сербин]-Cубтитры: русские, английские [отдельно]
Оригинальная аудиодорожка: китайский
Режиссер: Чи-Лын Ло / Chi-Leung Law
В ролях: Ксинг Бин, Ган Чен, Хей-Йи Чэн, Кар Лок Чин, Гао Ху, Ли Гуанбин, Цзян Иянь, Цзин Божань, Лу Кай, То-хой Конг
Описание: Классический остросюжетный детектив, где сталкиваются интересы власти, полиции и жителей маленького городка в 30-е годы XX века в Китае. «Пуля-призрак» только предлог для выяснения отношений между продажным правосудием и честными следователями, которые пытаются в этом «змеином клубке» отыскать правду.
Релиз от -
Сэмпл: http://multi-up.com/1015371
Качество видео: HDRip
Формат видео: AVI
Видео: MPEG-4 Visual at 1990 Кбит/сек; 720 x 304 (2.368) at 24.000 fps
Аудио: AC-3 at 448 Кбит/сек; 6 каналов, 48,0 КГц [AVO]
Аудио: AC-3 at 448 Кбит/сек; 6 каналов, 48,0 КГц [Chin]
Автор -
MediaInfo
Общее
Полное имя : D:\Фильмы\Азиатские\Призрачные пули\The Bullet Vanishes.2012.HDRip.XviD.2200MB. rip by [Assassin's Creed]\The Bullet Vanishes.2012.HDRip.XviD.2200MB. rip by [Assassin's Creed].avi
Формат : AVI
Формат/Информация : Audio Video Interleave
Профиль формата : OpenDML
Размер файла : 2,19 Гбайт
Продолжительность : 1 ч. 47 м.
Общий поток : 2904 Кбит/сек
Программа кодирования : VirtualDubMod 1.5.10.2 (build 2540/release)
Библиотека кодирования : VirtualDubMod build 2540/release
Видео
Идентификатор : 0
Формат : MPEG-4 Visual
Профиль формата : Advanced Simple@L5
Параметр BVOP формата : 1
Параметр QPel формата : Нет
Параметр GMC формата : Без точки перехода
Параметр матрицы формата : Default (MPEG)
Идентификатор кодека : XVID
Идентификатор кодека/Подсказка : XviD
Продолжительность : 1 ч. 47 м.
Битрейт : 1990 Кбит/сек
Ширина : 720 пикселей
Высота : 304 пикселя
Соотношение сторон : 2,35:1
Частота кадров : 24,000 кадра/сек
Цветовое пространство : YUV
Субдискретизация насыщенности : 4:2:0
Битовая глубина : 8 бит
Тип развёртки : Прогрессивная
Метод сжатия : С потерями
Бит/(Пиксели*Кадры) : 0.379
Размер потока : 1,50 Гбайт (69%)
Библиотека кодирования : XviD 1.2.1 (UTC 2008-12-04)
Аудио #1
Идентификатор : 1
Формат : AC-3
Формат/Информация : Audio Coding 3
Расширение режима : CM (complete main)
Параметр Endianness формата : Big
Идентификатор кодека : 2000
Продолжительность : 1 ч. 47 м.
Вид битрейта : Постоянный
Битрейт : 448 Кбит/сек
Каналы : 6 каналов
Расположение каналов : Front: L C R, Side: L R, LFE
Частота : 48,0 КГц
Битовая глубина : 16 бит
Метод сжатия : С потерями
Размер потока : 345 Мбайт (15%)
Выравнивание : Разделение по промежуткам
Продолжительность промежутка : 42 мс. (1,00 видеокадр)
Время предзагрузки промежутка : 500 мс.
Аудио #2
Идентификатор : 2
Формат : AC-3
Формат/Информация : Audio Coding 3
Расширение режима : CM (complete main)
Параметр Endianness формата : Big
Идентификатор кодека : 2000
Продолжительность : 1 ч. 47 м.
Вид битрейта : Постоянный
Битрейт : 448 Кбит/сек
Каналы : 6 каналов
Расположение каналов : Front: L C R, Side: L R, LFE
Частота : 48,0 КГц
Битовая глубина : 16 бит
Метод сжатия : С потерями
Размер потока : 345 Мбайт (15%)
Выравнивание : Разделение по промежуткам
Продолжительность промежутка : 42 мс. (1,00 видеокадр)
Время предзагрузки промежутка : 500 мс.
Общее
Полное имя : D:\Фильмы\Азиатские\Призрачные пули\The Bullet Vanishes.2012.HDRip.XviD.2200MB. rip by [Assassin's Creed]\The Bullet Vanishes.2012.HDRip.XviD.2200MB. rip by [Assassin's Creed].eng.srt
Формат : SubRip
Размер файла : 71,3 Кбайт
Текст
Формат : SubRip
Метод сжатия : Без потерь
Общее
Полное имя : D:\Фильмы\Азиатские\Призрачные пули\The Bullet Vanishes.2012.HDRip.XviD.2200MB. rip by [Assassin's Creed]\The Bullet Vanishes.2012.HDRip.XviD.2200MB. rip by [Assassin's Creed].rus.srt
Формат : SubRip
Размер файла : 82,6 Кбайт
Текст
Формат : SubRip
Метод сжатия : Без потерь
Скриншот c названием фильма Скриншоты
Скачать

Скачать торрент! Пуля исчезает / Призрачные пули / The Bullet Vanishes / Xiao shi de zi dan (Чи-Лын Ло / Chi-Leung Law) [2012, Китай, Гонконг, боевик, драма, детектив, HDRip] AVO [Ю.Сербин] + Original Chin + Sub (rus, eng)

Как скачивать? · Что такое торрент? · Рейтинг и ограничения

Сайт не распространяет и не хранит электронные версии произведений, а лишь предоставляет доступ к создаваемому пользователями каталогу ссылок на торрент-файлы, которые содержат только списки хеш-сумм

[Профиль] [ЛС]
Показать сообщения:    
Ответить на тему

Текущее время: Сегодня 15:55

Часовой пояс: GMT + 4



Вы не можете начинать темы
Вы не можете отвечать на сообщения
Вы не можете редактировать свои сообщения
Вы не можете удалять свои сообщения
Вы не можете голосовать в опросах
Вы не можете прикреплять файлы к сообщениям
Вы не можете скачивать файлы