22 минуты (Василий Сериков) [2014, Россия, Боевик, HDTV 1080i]

Ответить на тему
 
Автор Сообщение

user ®

Стаж: 7 лет 7 месяцев

Сообщений: 20008

Пост Пост: #1 от 25-Ноя-2014 07:05

[Цитировать]

22 минуты
Страна: Россия
Студия: Централ Партнершип
Жанр: Боевик
Год выпуска: 2014
Продолжительность: 01:22:00
Перевод: Не требуется
Cубтитры: нет
Режиссер: Василий Сериков
В ролях: Макар Запорожский, Денис Никифоров, Виктор Сухоруков, Екатерина Маликова, Гаэль Камилинди, Александр Галибин, Владислав Демин, Ибрагим Тооре, Софья Козко, Иван Породнов и др.
Описание: Морпех — первогодок Саня Ежов оказывается среди пиратов на захваченном танкере. Он знает — товарищи не бросят. Ему нужно выжить и помочь своим, когда начнется штурм. Фильм основан на реальных событиях 5 мая 2010 года, когда морские пехотинцы БПК «Маршал Шапошников» освободили захваченный в водах Аденского залива российский танкер «Московский университет». У них было только 22 минуты без права на ошибку…
Сэмпл: http://multi-up.com/1014875
Тип релиза: HDTV 1080i
Контейнер: TS
Видео: AVC, 1920х1080, 16:9, 8690 Кбит/сек, 25 fps
Аудио: MPEG Audio, 192 Кбит/сек, 48 КГц, 2 канала
MediaInfo
Общее
Идентификатор : 16 (0x10)
Полное имя : 22 minutes_HD.ts
Формат : MPEG-TS
Размер файла : 5,16 Гбайт
Продолжительность : 1 ч. 19 м.
Режим общего битрейта : Переменный
Общий поток : 9346 Кбит/сек
Видео
Идентификатор : 3402 (0xD4A)
Идентификатор меню : 1402 (0x57A)
Формат : AVC
Формат/Информация : Advanced Video Codec
Профиль формата : High@L4.0
Параметр CABAC формата : Да
Параметр ReFrames формата : 3 кадра
Идентификатор кодека : 27
Продолжительность : 1 ч. 19 м.
Битрейт : 8690 Кбит/сек
Ширина : 1920 пикселей
Высота : 1080 пикселей
Соотношение сторон : 16:9
Частота кадров : 25,000 кадров/сек
Стандарт вещания : PAL
Цветовое пространство : YUV
Субдискретизация насыщенности : 4:2:0
Битовая глубина : 8 бит
Тип развёртки : Чересстрочная
Порядок развёртки : Верхнее поле первое
Бит/(Пиксели*Кадры) : 0.168
Размер потока : 4,80 Гбайт (93%)
Основные цвета : BT.709
Характеристики трансфера : BT.709
Коэффициенты матрицы : BT.709
Аудио
Идентификатор : 4402 (0x1132)
Идентификатор меню : 1402 (0x57A)
Формат : MPEG Audio
Версия формата : Version 1
Профиль формата : Layer 2
Идентификатор кодека : 4
Продолжительность : 1 ч. 19 м.
Вид битрейта : Постоянный
Битрейт : 192 Кбит/сек
Каналы : 2 канала
Частота : 48,0 КГц
Метод сжатия : С потерями
Задержка видео : 3 мс.
Размер потока : 109 Мбайт (2%)
Язык : std
Язык, дополнительно : Clean effects
Скриншоты
Скачать

Скачать торрент!

Как скачивать? · Что такое торрент? · Рейтинг и ограничения

Сайт не распространяет и не хранит электронные версии произведений, а лишь предоставляет доступ к создаваемому пользователями каталогу ссылок на торрент-файлы, которые содержат только списки хеш-сумм

[Профиль] [ЛС]
Показать сообщения:    
Ответить на тему

Текущее время: Сегодня 08:12

Часовой пояс: GMT + 4



Вы не можете начинать темы
Вы не можете отвечать на сообщения
Вы не можете редактировать свои сообщения
Вы не можете удалять свои сообщения
Вы не можете голосовать в опросах
Вы не можете прикреплять файлы к сообщениям
Вы не можете скачивать файлы