Ищу попутчика (Кира Ангелина) [2014, Романтика, лирическая комедия, SATRip]

Ответить на тему
 
Автор Сообщение

user ®

Стаж: 7 лет 7 месяцев

Сообщений: 20008

Пост Пост: #1 от 24-Ноя-2014 22:40

[Цитировать]

Ищу попутчика
Жанр: Романтика, лирическая комедия
Год выпуска: 2014
Продолжительность: 01:28:55
Режиссёр: Денис Елеонский
В ролях: Людмила Свитова, Елена Симонова, Василий Кортуков, Андрей Аверков, Александр Нестеров (III), Татьяна Ткач, Виктор Костецкий, Полина Воробьева, Наталья Высочанская, Денис Елеонский, Егор Кутенков, Вячеслав Коробицин, Хельга Филиппова, Илья Разин, Виктор Санков, Антон Новиков
Описание: У Василисы Кулебяки из небольшого старинного русского городка в один день рушится всё – работа, мечты, личная жизнь… Соседка подсказывает ей проверенный способ пережить потрясение – отправиться в Петербург в период Белых ночей. Василиса через интернет находит попутчицу, чтобы вместе поделить расходы на проживание в мини-гостинице. В результате путаницы её соседка из Москвы оказывается… соседом. Да ещё с характером, который Василиса на дух не переносит. Но это только начало сюрпризов, которые ждут Василису в период Белых ночей…
Сэмпл: https://cloud.mail.ru/public/43cf591eacb6/%D0%98%D1...%D0%BA%D0%B0.avi
Качество видео: SATRip
Формат видео: AVI
Видео: XviD, 720x400, 25.00fps, ~2000 Кбит/сек, 0.269 bit/pixel
Аудио: MP3, 48000 Hz, stereo, 192 Кбит/сек
MediaInfo
Общее
Полное имя : E:\Сериалы (2014)\Ищу попутчика.2014.XviD.SATRip.by.simka.avi
Формат : AVI
Формат/Информация : Audio Video Interleave
Размер файла : 1,37 Гбайт
Продолжительность : 1 ч. 28 м.
Общий поток : 2203 Кбит/сек
Программа кодирования : VirtualDubMod 1.5.10.3 | www.virtualdub-fr.org || (build 2550/release)
Библиотека кодирования : VirtualDubMod build 2550/release
Видео
Идентификатор : 0
Формат : MPEG-4 Visual
Профиль формата : Advanced Simple@L5
Параметр BVOP формата : 1
Параметр QPel формата : Нет
Параметр GMC формата : Без точки перехода
Параметр матрицы формата : Default (MPEG)
Идентификатор кодека : XVID
Идентификатор кодека/Подсказка : XviD
Продолжительность : 1 ч. 28 м.
Битрейт : 2001 Кбит/сек
Ширина : 720 пикселей
Высота : 400 пикселей
Соотношение сторон : 16:9
Частота кадров : 25,000 кадров/сек
Цветовое пространство : YUV
Субдискретизация насыщенности : 4:2:0
Битовая глубина : 8 бит
Тип развёртки : Прогрессивная
Метод сжатия : С потерями
Бит/(Пиксели*Кадры) : 0.278
Размер потока : 1,24 Гбайт (91%)
Библиотека кодирования : XviD 1.2.1 (UTC 2008-12-04)
Аудио
Идентификатор : 1
Формат : MPEG Audio
Версия формата : Version 1
Профиль формата : Layer 3
Режим : Joint stereo
Расширение режима : MS Stereo
Идентификатор кодека : 55
Идентификатор кодека/Подсказка : MP3
Продолжительность : 1 ч. 28 м.
Вид битрейта : Постоянный
Битрейт : 192 Кбит/сек
Каналы : 2 канала
Частота : 48,0 КГц
Метод сжатия : С потерями
Размер потока : 122 Мбайт (9%)
Выравнивание : Соединение по промежуткам
Продолжительность промежутка : 40 мс. (1,00 видеокадр)
Время предзагрузки промежутка : 504 мс.
Библиотека кодирования : LAME3.99r
Настройки программы : -m j -V 4 -q 2 -lowpass 18.6 -b 192
Скриншот c названием фильма Скриншоты
-
Релиз группы::
Скачать

Скачать торрент!

Как скачивать? · Что такое торрент? · Рейтинг и ограничения

Сайт не распространяет и не хранит электронные версии произведений, а лишь предоставляет доступ к создаваемому пользователями каталогу ссылок на торрент-файлы, которые содержат только списки хеш-сумм

[Профиль] [ЛС]
Показать сообщения:    
Ответить на тему

Текущее время: Сегодня 12:10

Часовой пояс: GMT + 4



Вы не можете начинать темы
Вы не можете отвечать на сообщения
Вы не можете редактировать свои сообщения
Вы не можете удалять свои сообщения
Вы не можете голосовать в опросах
Вы не можете прикреплять файлы к сообщениям
Вы не можете скачивать файлы