Комната расплаты / Punishment Room / Shokei no heya (Кон Итикава / Kon Ichikawa) [1956, Япония, драма, DVDRip] (Rus) (Eng) + Sub

Ответить на тему
 
Автор Сообщение

user ®

Стаж: 11 лет

Сообщений: 15151

Пост Пост: #1 от 24-Ноя-2014 19:30

[Цитировать]

Комната расплаты / Punishment Room / Shokei no heya / 処刑の部屋
Страна: Япония
Жанр: драма
Год выпуска: 1956
Продолжительность: 01:35:28
Перевод 1: Субтитры русские - [url=http://***/forum/tracker.php?rid=6473541]дед_сто_лет[/url]©
Перевод 2: Субтитры английские - scannon & lordretsudo
Cубтитры: русские
Оригинальная аудиодорожка: японский
Режиссер: [url=http://***/forum/tracker.php?nm=Kon%20Ichikawa]Кон Итикава / Kon Ichikawa[/url]
В ролях: Хироси КАВАГУТИ, Кэйдзо КАВАСАКИ, Аяко ВАКАО, Ёскэ ИРИЭ, Масаёси УМЭВАКА, Масая ЦУКИТА, Сэйдзи МИДЗОГУТИ, Тэруко КИСИ, Нобуро НАКАМУРА, Тосио ХАРУМОТО, Нобуо НАКАМУРА, Осаму МАРУЯМА, Энико СЭТО, Нобуо МИНАМИТАКА, Коити ИТО
Описание: Кацуми Cимада не хочет жить, как его отец. Его не устраивает будущее простого банковского служащего. Скоро конец обучения в университете, но он не хочет унижаться поисками работы. Страсти кипят в нем, но ни дeньги, ни женщины, ни предательство не позволяют унять огонь, пожирающие его изнутри. Ситуация напоминает страдания Раскольникова: "Кто я тварь дрожащая, или право имею?" Какая расплата ждет его за преступления?©
> > > > >
Качество видео: DVDRip
Формат видео: AVI
Видео: 720x544 (1.32:1), 23.976 fps, XviD build 50 ~1997 kbps avg, 0.21 bit/pixel
Аудио: 48 kHz, AC3 Dolby Digital, 2/0 (L,R) ch, ~192 kbps
Формат субтитров: softsub (SRT)
Доп. информация о субтитрах: дед_сто_лет
Пример субтитров
476
00:54:30,501 --> 00:54:35,382
Я очень занят на работе,
но я попрошу помощи у банка.
477
00:54:36,473 --> 00:54:40,182
В любом случае гор сейчас навалом.
478
00:54:41,044 --> 00:54:44,958
Он хранил её для кладбища.
479
00:54:45,149 --> 00:54:48,426
Какая разница?
Кто думает о своей будущей могиле?
480
00:54:48,619 --> 00:54:52,396
Люди сейчас тратят
деньги на всякую чепуху.
481
00:54:53,791 --> 00:54:58,069
- Он думает о своей могиле.
- Ерунда!
482
00:54:58,796 --> 00:55:02,801
Если кто-то умирает,
нужно какое-то место.
483
00:55:05,803 --> 00:55:10,081
- Дай мне письмо!
- Оно перед тобой.
484
00:55:10,274 --> 00:55:12,754
- Не это, а письмо Кацуми!
- Его?
485
00:55:12,943 --> 00:55:14,445
Оно же у тебя?
486
00:56:38,128 --> 00:56:41,302
Это та самая девушка?
487
00:57:09,927 --> 00:57:13,807
- Что вам тут нужно?
- Ты пришел?
488
00:57:13,997 --> 00:57:18,503
Что вы рыскаете в моей комнате?
Что-нибудь нашли?
489
00:57:18,702 --> 00:57:20,511
Откуда эти фото?
490
00:57:22,005 --> 00:57:24,679
Это из общежития,
где живут сокурсники.
491
00:57:24,875 --> 00:57:26,616
Откуда ты знаешь эту девушку?
492
00:57:26,810 --> 00:57:31,316
Эту? Она работает в общежитии.
У меня с ней ничего не было.
493
00:57:31,515 --> 00:57:34,519
Если бы она была покрасивее,
то обязательно было бы!
494
00:57:36,954 --> 00:57:39,127
Пришло письмо.
495
00:57:42,726 --> 00:57:44,831
ОТ ГОСПОДИНА ХАНЯ СИМАДА
496
00:57:48,965 --> 00:57:52,037
- И что в нем?
- Прочти сам.
MediaInfo
General
Complete name : C:\Users\HP\Desktop\Punishment.Room(1956)Kon.Ichikawa\Punishment.Room(1956)Kon.Ichikawa.avi
Format : AVI
Format/Info : Audio Video Interleave
File size : 1.47 GiB
Duration : 1h 35mn
Overall bit rate : 2 199 Kbps
Writing application : VirtualDubMod 1.5.4.1 (build 2178/release)
Writing library : VirtualDub-MPEG2 build 24600/release
Video
ID : 0
Format : MPEG-4 Visual
Format profile : Advanced Simple@L5
Format settings, BVOP : 1
Format settings, QPel : No
Format settings, GMC : No warppoints
Format settings, Matrix : Custom
Codec ID : XVID
Codec ID/Hint : XviD
Duration : 1h 35mn
Bit rate : 1 997 Kbps
Width : 720 pixels
Height : 544 pixels
Display aspect ratio : 4:3
Frame rate : 23.976 fps
Color space : YUV
Chroma subsampling : 4:2:0
Bit depth : 8 bits
Scan type : Progressive
Compression mode : Lossy
Bits/(Pixel*Frame) : 0.213
Stream size : 1.33 GiB (91%)
Writing library : XviD 1.2.1 (UTC 2008-12-04)
Audio
ID : 1
Format : AC-3
Format/Info : Audio Coding 3
Mode extension : CM (complete main)
Codec ID : 2000
Duration : 1h 35mn
Bit rate mode : Constant
Bit rate : 192 Kbps
Channel(s) : 2 channels
Channel positions : Front: L R
Sampling rate : 48.0 KHz
Bit depth : 16 bits
Compression mode : Lossy
Stream size : 131 MiB (9%)
Alignment : Split accross interleaves
Interleave, duration : 42 ms (1.00 video frame)
Interleave, preload duration : 500 ms
Скриншот c названием фильма Скриншоты
Скачать

Скачать торрент! Комната расплаты / Punishment Room / Shokei no heya (Кон Итикава / Kon Ichikawa) [1956, Япония, драма, DVDRip] (Rus) (Eng) + Sub

Как скачивать? · Что такое торрент? · Рейтинг и ограничения

Сайт не распространяет и не хранит электронные версии произведений, а лишь предоставляет доступ к создаваемому пользователями каталогу ссылок на торрент-файлы, которые содержат только списки хеш-сумм

[Профиль] [ЛС]
Показать сообщения:    
Ответить на тему

Текущее время: Сегодня 13:15

Часовой пояс: GMT + 4



Вы не можете начинать темы
Вы не можете отвечать на сообщения
Вы не можете редактировать свои сообщения
Вы не можете удалять свои сообщения
Вы не можете голосовать в опросах
Вы не можете прикреплять файлы к сообщениям
Вы не можете скачивать файлы