Мерси / Милосердие / Mercy (Питер Корнвэлл / Peter Cornwell) [2014, США, ужасы, триллер, DVDRip] VO (Васька Куролесов)

Ответить на тему
 
Автор Сообщение

user ®

Стаж: 7 лет 7 месяцев

Сообщений: 20008

Пост Пост: #1 от 24-Ноя-2014 16:20

[Цитировать]

Мерси / Милосердие / Mercy
Страна: США
Жанр: ужасы, триллер
Год выпуска: 2014
Продолжительность: 01:18:39
Перевод: Одноголосый закадровый Васька Куролесов по субтитрам Ворон
Cубтитры: нет
Оригинальная аудиодорожка: нет
Режиссер: Питер Корнвэлл / Peter Cornwell
В ролях: Чендлер Риггз, Дилан МакДермотт, Марк Дюпласс, Фрэнсис О’Коннор, Джоэл Кортни, Аманда Уолш, Ширли Найт, Хана Хэйес, Крис Браунинг, Джо Эгендер
Описание: У каждой семьи свои тайны. Вот и в семье 11-летнего Джорджа она тоже имеется. Вместе с матерью и братом он отправляется ухаживать за старой больной бабушкой, к чьим странноватым и ужасным сказкам он привык с самого детства. Но они ничто по сравнению со страшным проклятием его семьи, которое преследует их. Страшные сказки детства оживают, ведь бабуля не просто хранила их и передавала вначале детям, а потом внукам. Она была главной героиней самой страшной сказки.
Фильм снят по рассказу Стивена Кинга "Бабуля". В самом названии фильма присутствует некоторая игра слов. "Мерси" - не только имя главной героини, но также и "Милосердие". Но и конечно огромный сюрприз для всех поклонников "Ходячих Мертвецов". В главной роли юная звезда сериала Чендлер Риггз (Карл Грэймс, сын шерифа Рикка). Это дебют мальчика в полном метре. На мой взгляд, весьма удачный. Взяв в руки топор, он уверенно расправляется с нечистью... Сказывается опыт, полученный на съёмочной площадке "Ходячих".
Доп. информация:

Сэмпл: http://multi-up.com/1015207
Качество видео: DVDRip
Формат видео: AVI
Видео: 720x304 (2.37:1), 23.976 fps, XviD MPEG-4 ~1163 kbps avg, 0.22 bit/pixel
Аудио: 48 kHz, MPEG Layer 3, 2 ch, ~128.00 kbps avg
MediaInfo
General
Complete name : C:\Users\Вика\Desktop\mеrcy.2014.avi
Format : AVI
Format/Info : Audio Video Interleave
File size : 732 MiB
Duration : 1h 18mn
Overall bit rate : 1 301 Kbps
Writing application : VirtualDubMod 1.5.10.2 (build 2540/release)
Writing library : VirtualDubMod build 2540/release
Video
ID : 0
Format : MPEG-4 Visual
Format profile : Advanced Simple@L5
Format settings, BVOP : Yes
Format settings, QPel : No
Format settings, GMC : No warppoints
Format settings, Matrix : Default (H.263)
Codec ID : XVID
Codec ID/Hint : XviD
Duration : 1h 18mn
Bit rate : 1 164 Kbps
Width : 720 pixels
Height : 304 pixels
Display aspect ratio : 2.35:1
Frame rate : 23.976 fps
Color space : YUV
Chroma subsampling : 4:2:0
Bit depth : 8 bits
Scan type : Progressive
Compression mode : Lossy
Bits/(Pixel*Frame) : 0.222
Stream size : 655 MiB (89%)
Writing library : XviD 65
Audio
ID : 1
Format : MPEG Audio
Format version : Version 1
Format profile : Layer 3
Mode : Joint stereo
Codec ID : 55
Codec ID/Hint : MP3
Duration : 1h 18mn
Bit rate mode : Constant
Bit rate : 128 Kbps
Channel count : 2 channels
Sampling rate : 48.0 KHz
Compression mode : Lossy
Stream size : 72.0 MiB (10%)
Alignment : Aligned on interleaves
Interleave, duration : 42 ms (1.00 video frame)
Interleave, preload duration : 504 ms
Скриншоты
Скачать

Скачать торрент!

Как скачивать? · Что такое торрент? · Рейтинг и ограничения

Сайт не распространяет и не хранит электронные версии произведений, а лишь предоставляет доступ к создаваемому пользователями каталогу ссылок на торрент-файлы, которые содержат только списки хеш-сумм

[Профиль] [ЛС]
Показать сообщения:    
Ответить на тему

Текущее время: Сегодня 23:53

Часовой пояс: GMT + 4



Вы не можете начинать темы
Вы не можете отвечать на сообщения
Вы не можете редактировать свои сообщения
Вы не можете удалять свои сообщения
Вы не можете голосовать в опросах
Вы не можете прикреплять файлы к сообщениям
Вы не можете скачивать файлы