В бегах / Ain\'t Them Bodies Saints (Дэвид Лоури / David Lowery) [2013, США, Драма, мелодрама, криминал, HDTV 1080i] MVO + Sub Rus + Original Eng

Ответить на тему
 
Автор Сообщение

user ®

Стаж: 7 лет 7 месяцев

Сообщений: 20008

Пост Пост: #1 от 24-Ноя-2014 13:10

[Цитировать]

В бегах / Ain't Them Bodies Saints
Страна: США
Студия: Evolution Independent, Lagniappe Films, Paradox Entertainment, Parts and Labor
Жанр: Драма, мелодрама, криминал
Год выпуска: 2013
Продолжительность: 01:29:41
Перевод: Профессиональный (многоголосый закадровый)
Cубтитры: русские
Оригинальная аудиодорожка: английский
Режиссер: Дэвид Лоури / David Lowery
В ролях: Кейси Аффлек, Руни Мара, Бен Фостер, Кит Кэрредин, Кеннади Смит, Джеклинн Смит, Нэйт Паркер, Роберт Лонгстрит, Чарльз Бэйкер, Августин Фриззелл
Описание: Техас, 1970-е годы. Попав в засаду, трое молодых преступников тяжело ранят одного из окруживших их полицейских. Главарь банды Боб Малдун берет всю вину на себя, хотя роковой выстрел сделала его девушка Рут, и отправляется за решетку на много лет. Уже в тюрьме он узнает, что у него родилась дочь Сильвия. Чтобы увидеть девочку Боб совершает побег за побегом, но вырваться на свободу ему удается только через четыре долгих года. Его следы ведут в противоположном от родных мест направлении, однако техасская полиция (и прежде всего Патрик Уилер — офицер, раненный в той давней перестрелке) считает, что появиться беглец может только там, где находится маленькая Сильвия. Все готово к охоте на Малдуна, но, оказывается, что не только служители закона хотят заставить Боба сполна заплатить по давним счетам.
Сэмпл: http://multi-up.com/1014808
Тип релиза: HDTV 1080i
Контейнер: TS
Видео: AVC, 1920х1080, 16:9, 6690 Кбит/сек, 25 fps
Аудио: (русский) MPEG Audio, 192 Кбит/сек, 48 КГц, 2 канала
Аудио 2: (английский) MPEG Audio, 192 Кбит/сек, 48 КГц, 2 канала
Формат субтитров: Teletext
MediaInfo
Общее
Идентификатор : 16 (0x10)
Полное имя : Ain't Them Bodies Saints_HD.ts
Формат : MPEG-TS
Размер файла : 4,92 Гбайт
Продолжительность : 1 ч. 29 м.
Режим общего битрейта : Переменный
Общий поток : 7854 Кбит/сек
Видео
Идентификатор : 1812 (0x714)
Идентификатор меню : 812 (0x32C)
Формат : AVC
Формат/Информация : Advanced Video Codec
Профиль формата : High@L4.0
Параметр CABAC формата : Да
Параметр ReFrames формата : 4 кадра
Идентификатор кодека : 27
Продолжительность : 1 ч. 29 м.
Битрейт : 6690 Кбит/сек
Ширина : 1920 пикселей
Высота : 1080 пикселей
Соотношение сторон : 16:9
Частота кадров : 25,000 кадров/сек
Стандарт вещания : PAL
Цветовое пространство : YUV
Субдискретизация насыщенности : 4:2:0
Битовая глубина : 8 бит
Тип развёртки : MBAFF
Бит/(Пиксели*Кадры) : 0.129
Размер потока : 4,19 Гбайт (85%)
Основные цвета : BT.709
Характеристики трансфера : BT.709
Коэффициенты матрицы : BT.709
Аудио #1
Идентификатор : 2812 (0xAFC)
Идентификатор меню : 812 (0x32C)
Формат : MPEG Audio
Версия формата : Version 1
Профиль формата : Layer 2
Идентификатор кодека : 4
Продолжительность : 1 ч. 29 м.
Вид битрейта : Постоянный
Битрейт : 192 Кбит/сек
Каналы : 2 канала
Частота : 48,0 КГц
Метод сжатия : С потерями
Задержка видео : 106 мс.
Размер потока : 123 Мбайт (2%)
Язык : std
Язык, дополнительно : Clean effects
Аудио #2
Идентификатор : 3812 (0xEE4)
Идентификатор меню : 812 (0x32C)
Формат : MPEG Audio
Версия формата : Version 1
Профиль формата : Layer 2
Идентификатор кодека : 4
Продолжительность : 1 ч. 29 м.
Вид битрейта : Постоянный
Битрейт : 192 Кбит/сек
Каналы : 2 канала
Частота : 48,0 КГц
Метод сжатия : С потерями
Задержка видео : 106 мс.
Размер потока : 123 Мбайт (2%)
Язык : English
Язык, дополнительно : Clean effects
Текст
Идентификатор : 63 (0x3F)-100
Идентификатор меню : 812 (0x32C)
Формат : Teletext
Меню
Идентификатор : 812 (0x32C)
Идентификатор меню : 812 (0x32C)
Список : 1812 (0x714) (AVC) / 2812 (0xAFC) (MPEG Audio, std) / 3812 (0xEE4) (MPEG Audio, English) / 4812 (0x12CC) (AC-3, std) / 63 (0x3F) ()
Язык : / std / English / std
Скриншоты
Скачать

Скачать торрент!

Как скачивать? · Что такое торрент? · Рейтинг и ограничения

Сайт не распространяет и не хранит электронные версии произведений, а лишь предоставляет доступ к создаваемому пользователями каталогу ссылок на торрент-файлы, которые содержат только списки хеш-сумм

[Профиль] [ЛС]
Показать сообщения:    
Ответить на тему

Текущее время: Сегодня 09:56

Часовой пояс: GMT + 4



Вы не можете начинать темы
Вы не можете отвечать на сообщения
Вы не можете редактировать свои сообщения
Вы не можете удалять свои сообщения
Вы не можете голосовать в опросах
Вы не можете прикреплять файлы к сообщениям
Вы не можете скачивать файлы