Стерео / Stereo (Максимилиан Эрленвейн / Maximilian Erlenwein) [2014, Германия, триллер, HDRip] DVO (ViruseProject) + Original + Sub (Rus)

Ответить на тему
 
Автор Сообщение

user ®

Стаж: 7 лет 7 месяцев

Сообщений: 20008

Пост Пост: #1 от 24-Ноя-2014 13:10

[Цитировать]

Стерео / Stereo
Страна: Германия
Жанр: триллер
Год выпуска: 2014
Продолжительность: 01:37:40
Перевод: Любительский (двухголосый закадровый) ViruseProject
Cубтитры: Русские - отдельно
Оригинальная аудиодорожка: Немецкая - отдельно
Режиссер: Максимилиан Эрленвейн / Maximilian Erlenwein
В ролях: Мориц Бляйбтрой, Юрген Фогель, Петра Шмидт-Шаллер, Георг Фридрих и др.
Описание: В жизни автослесаря Эрика появляется таинственный незнакомец — грубиян и провокатор. Но он знает что-то о прошлом Эрика, что сам Эрик очень хочет забыть.


Над релизом трудились:
Озвучка: Марина Видякина и Алексей Кизуб
Перевод: kon2011
Сведение звука: Виталий Емельянов
Качество видео: HDRip
Формат видео: AVI
Видео: 720x304 (2.37:1), 24.000 fps, XviD build 50 ~1763 kbps avg, 0.34 bit/pixel
Аудио 1: 48 kHz, AC3 Dolby Digital, 3/2 (L,C,R,l,r) + LFE ch, ~384 kbps (RUS)
Аудио 2: 48 kHz, AC3 Dolby Digital, 6 (L, C, R, Side: L, R, LFE) ch, ~384 kbps (GER) - - отдельно
Формат субтитров: softsub (SRT)
MediaInfo
Format : AVI
Format/Info : Audio Video Interleave
File size : 1.47 GiB
Duration : 1h 37mn
Overall bit rate : 2 157 Kbps
Writing application : VirtualDubMod 1.5.10.2 (build 2540/release)
Writing library : VirtualDubMod build 2540/release
Video #0
ID : 0
Format : MPEG-4 Visual
Format profile : Advanced Simple@L5
Format settings, BVOP : 1
Format settings, QPel : No
Format settings, GMC : No warppoints
Format settings, Matrix : Default (MPEG)
Codec ID : XVID
Codec ID/Hint : XviD
Duration : 1h 37mn
Bit rate : 1 763 Kbps
Width : 720 pixels
Height : 304 pixels
Display aspect ratio : 2.35:1
Frame rate : 24.000 fps
Color space : YUV
Chroma subsampling : 4:2:0
Bit depth : 8 bits
Scan type : Progressive
Compression mode : Lossy
Bits/(Pixel*Frame) : 0.336
Stream size : 1.20 GiB (82%)
Writing library : XviD 1.2.1 (UTC 2008-12-04)
Audio #1
ID : 1
Format : AC-3
Format/Info : Audio Coding 3
Mode extension : CM (complete main)
Codec ID : 2000
Duration : 1h 37mn
Bit rate mode : Constant
Bit rate : 384 Kbps
Channel(s) : 6 channels
Channel positions : Front: L C R, Side: L R, LFE
Sampling rate : 48.0 KHz
Bit depth : 16 bits
Compression mode : Lossy
Stream size : 268 MiB (18%)
Alignment : Split accross interleaves
Interleave, duration : 42 ms (1.00 video frame)
Interleave, preload duration : 500 ms
Скриншот c названием фильма Скриншоты
Скачать

Скачать торрент!

Как скачивать? · Что такое торрент? · Рейтинг и ограничения

Сайт не распространяет и не хранит электронные версии произведений, а лишь предоставляет доступ к создаваемому пользователями каталогу ссылок на торрент-файлы, которые содержат только списки хеш-сумм

[Профиль] [ЛС]
Показать сообщения:    
Ответить на тему

Текущее время: Сегодня 10:06

Часовой пояс: GMT + 4



Вы не можете начинать темы
Вы не можете отвечать на сообщения
Вы не можете редактировать свои сообщения
Вы не можете удалять свои сообщения
Вы не можете голосовать в опросах
Вы не можете прикреплять файлы к сообщениям
Вы не можете скачивать файлы