С 8 Марта, мужчины! (Артем Аксененко) [2014, мелодрама, комедия, DVB-T2]

Ответить на тему
 
Автор Сообщение

user ®

Стаж: 7 лет 7 месяцев

Сообщений: 20008

Пост Пост: #1 от 24-Ноя-2014 01:40

[Цитировать]

С 8 Марта, мужчины!
Слоган: «Она знает, о чём мечтают мужчины»
Год выпуска: 2014
Производство: Россия, Беларусь
Жанр: мелодрама, комедия
Продолжительность: 01:35:56
Режиссёр: Артем Аксененко
В ролях: Мария Берсенева, Максим Виторган, Светлана Иванова, Михаил Башкатов, Вера Алентова, Константин Лавиш, Ксения Бородина, Владислав Лисовец, Стивен Нельсон, Алексей Климушкин
Описание: Анна Беркутова — блондинка в броне из мини-юбки и глубокого декольте. Ее оружие — красота, ум и абсолютная уверенность в том, что она знает мужчин. Она ведет важный проект в Сколково и собирается замуж за богатого иностранца. Но в день ее рождения, 8 марта, ее четкая, как финансовый отчет, судьба меняется: Аню бросает жених, ее проект крадут из Сколково, а сама она начинает слышать мысли мужчин. Эта способность сначала доводит ее до отчаяния, а затем открывает широкие возможности...
Раздача группы:
Сэмпл
Качество: DVB-T2
Формат: TS
Видео кодек: AVC
Аудио кодек: MP2
Видео: AVC, 720х576@1024х576 (16:9), 2671 Kbps, 25 fps, Bits/(Pixel*Frame) : 0.254
Аудио: MP2, 192 Kbps, 48.0 KHz, 2 ch
MI
D:\С 8 марта, мужчины!.ts
General #1
ID : 1 (0x1)
Complete name : D:\С 8 марта, мужчины!.ts
Format : MPEG-TS
File size : 2.02 GiB
Duration : 1h 35mn
Overall bit rate : 3 013 Kbps
Video #1041
ID : 1041 (0x411)
Menu ID : 1 (0x1)
Format : AVC
Format/Info : Advanced Video Codec
Format profile : Main@L3.0
Format settings, CABAC : Yes
Format settings, ReFrames : 3 frames
Format settings, GOP : M=4, N=28
Codec ID : 27
Duration : 1h 35mn
Bit rate : 2 671 Kbps
Width : 720 pixels
Height : 576 pixels
Display aspect ratio : 16:9
Frame rate : 25.000 fps
Standard : Component
Color space : YUV
Chroma subsampling : 4:2:0
Bit depth : 8 bits
Scan type : Interlaced
Scan order : Top Field First
Bits/(Pixel*Frame) : 0.258
Stream size : 1.79 GiB (89%)
Color primaries : BT.470-6 System B, BT.470-6 System G, BT.601-6 625, BT.1358 625, BT.1700 625 PAL, BT.1700 625 SECAM
Transfer characteristics : BT.470-6 System B, BT.470-6 System G
Matrix coefficients : BT.470-6 System B, BT.470-6 System G, BT.601-6 625, BT.1358 625, BT.1700 625 PAL, BT.1700 625 SECAM, IEC 61966-2-4 601
Audio #1042
ID : 1042 (0x412)
Menu ID : 1 (0x1)
Format : MPEG Audio
Format version : Version 1
Format profile : Layer 2
Codec ID : 3
Duration : 1h 35mn
Bit rate mode : Constant
Bit rate : 192 Kbps
Channel(s) : 2 channels
Sampling rate : 48.0 KHz
Compression mode : Lossy
Stream size : 132 MiB (6%)
Language : English
Text #1044-100
ID : 1044 (0x414)-100
Menu ID : 1 (0x1)
Format : Teletext
Language : Russian
Скриншоты
Скачать

Скачать торрент!

Как скачивать? · Что такое торрент? · Рейтинг и ограничения

Сайт не распространяет и не хранит электронные версии произведений, а лишь предоставляет доступ к создаваемому пользователями каталогу ссылок на торрент-файлы, которые содержат только списки хеш-сумм

[Профиль] [ЛС]
Показать сообщения:    
Ответить на тему

Текущее время: Сегодня 08:27

Часовой пояс: GMT + 4



Вы не можете начинать темы
Вы не можете отвечать на сообщения
Вы не можете редактировать свои сообщения
Вы не можете удалять свои сообщения
Вы не можете голосовать в опросах
Вы не можете прикреплять файлы к сообщениям
Вы не можете скачивать файлы