Сизый голубочек (Екатерина СОКОЛОВА) [2010, Анимационный фильм, DVDScreener]

Ответить на тему
 
Автор Сообщение

user ®

Стаж: 7 лет 7 месяцев

Сообщений: 20008

Пост Пост: #1 от 23-Ноя-2014 22:30

[Цитировать]

Сизый голубочек
Страна: Россия
Жанр: Анимационный фильм
Продолжительность: 00:12:12
Год выпуска: 2010
Русские субтитры: нет
Режиссёр: Екатерина СОКОЛОВА
Описание: Дни проносятся, улетая в прошлое, и в этом мелькании так трудно разглядеть своё счастье и однажды сойти на незнакомом полустанке.
Доп. информация: Лучший режиссер Открытого фестиваля анимационного кино, Суздаль (Россия), 2012
Международный кинофестиваль им. А. Тарковского 'Зеркало', Иваново (Россия), 2012
Большой фестиваль мультфильмов, Воронеж (Россия), 2012
Московский международный кинофестиваль (ММКФ), Москва (Россия), 2012
Фестиваль отечественного кино ''Московская премьера'', Москва (Россия), 2012
Фестиваль Фестивалей, Санкт Петербург (Россия), 2012
Международный кинофестиваль "Меридианы Тихого", Владивосток (Россия), 2012
Международный фестиваль мультфильма , Бэгль (Франция), 2012
Международный фестиваль фильмов для детей и молодежи в г. Злин, Злин (Чехия), 2012
Фестиваль русского кино в Лондоне, Лондон (Великобритания), 2012
Международный Фестиваль короткометражного кино и анимации OPEN CINEMA, Санкт Петербург (Россия), 2011
Большой фестиваль мультфильмов, Москва (Россия), 2011
Международный фестиваль анимационных фильмов «КРОК», Киев (Украина), 2011
Международный фестиваль документальных и анимационных фильмов в Лейпциг, Лейпциг (Германия), 2011
Качество: DVDScreener
Формат: AVI
Видео: DIVX, 720x408, 25fps, 988kbps
Аудио: MPEG Layer3, 48kHz, 2ch, 192kbps
Субтитры: отсутствуют
Подробные технические данные
Полное имя : Сизый голубочек.aviФормат : AVIФормат/Информация : Audio Video InterleaveРазмер файла : 104 МбайтПродолжительность : 12 м.Общий поток : 1189 Кбит/секПрограмма кодирования : VirtualDubMod 1.5.10.3 | www.virtualdub-fr.org || (build 2550/release)Библиотека кодирования : VirtualDubMod build 2550/release
ВидеоИдентификатор : 0Формат : MPEG-4 VisualПрофиль формата : Advanced Simple@L5Параметр BVOP формата : 1Параметр QPel формата : НетПараметр GMC формата : Без точки переходаПараметр матрицы формата : Default (H.263)Идентификатор кодека : DIVXИдентификатор кодека/Информация : Project MayoИдентификатор кодека/Подсказка : DivX 4Продолжительность : 12 м.Битрейт : 988 Кбит/секШирина : 720 пикселейВысота : 408 пикселейСоотношение сторон : 16:9Частота кадров : 25,000 кадров/секЦветовое пространство : YUVСубдискретизация насыщенности : 4:2:0Битовая глубина : 8 битТип развёртки : ПрогрессивнаяМетод сжатия : С потерямиБит/(Пиксели*Кадры) : 0.134Размер потока : 86,2 Мбайт (83%)Библиотека кодирования : XviD 1.2.1 (UTC 2008-12-04)
АудиоИдентификатор : 1Формат : MPEG AudioВерсия формата : Version 1Профиль формата : Layer 3Идентификатор кодека : 55Идентификатор кодека/Подсказка : MP3Продолжительность : 12 м.Вид битрейта : ПостоянныйБитрейт : 192 Кбит/секКаналы : 2 каналаЧастота : 48,0 КГцМетод сжатия : С потерямиРазмер потока : 16,8 Мбайт (16%)Выравнивание : Соединение по промежуткамПродолжительность промежутка : 40 мс. (1,00 видеокадр)Время предзагрузки промежутка : 504 мс.Библиотека кодирования : LAME3.99rНастройки программы : -m s -V 4 -q 0 -lowpass 18.6 -b 192
Скриншоты
Скачать

Скачать торрент!

Как скачивать? · Что такое торрент? · Рейтинг и ограничения

Сайт не распространяет и не хранит электронные версии произведений, а лишь предоставляет доступ к создаваемому пользователями каталогу ссылок на торрент-файлы, которые содержат только списки хеш-сумм

[Профиль] [ЛС]
Показать сообщения:    
Ответить на тему

Текущее время: Сегодня 18:40

Часовой пояс: GMT + 4



Вы не можете начинать темы
Вы не можете отвечать на сообщения
Вы не можете редактировать свои сообщения
Вы не можете удалять свои сообщения
Вы не можете голосовать в опросах
Вы не можете прикреплять файлы к сообщениям
Вы не можете скачивать файлы