Цветы / Flowers (Норихиро Коидзуми / Norihiro Koizumi) [2010, Япония, драма, HDRip] original Jap + Sub (rus) [ЮГТ]

Ответить на тему
 
Автор Сообщение

user ®

Стаж: 13 лет

Сообщений: 15071

Пост Пост: #1 от 23-Ноя-2014 22:30

[Цитировать]

Цветы / Flowers- -Страна: Япония
Жанр: драма
Год выпуска: 2010
Продолжительность: 01:49:16-Перевод: Субтитры перевод [ЮГТ] © 2011-Cубтитры: русские [вшитые]
Оригинальная аудиодорожка: японский
Режиссер: Норихиро Коидзуми / Norihiro Koizumi
В ролях: Ю Аои, Кёко Мая, Такахиро Миура, Сансэй Сиоми, Юко Такэути, Такао Осава, Рэна Танака, Дзюнити Комото, Хироюки Нагато, Юкиэ Накама, Ёсихико Инохара, Кёка Судзуки, Мицуру Хирата, Рёко Хиросуэ, Таро Суруга
Описание: Женщины разных поколений думают о ценностях брака, счастье семейной жизни, ответственности за своих детей, профессиональной самореализации. От решения каждой из них зависят жизни их близких. В фильме они переживают и разочарование, и потерю, и дискриминацию, и одиночество, и любовь, и радость материнства.
Фильм посвящается всем влюбленным, всем беременным, всем матерям, всем сомневающимся в необходимости брака, всем любящим своих родителей, всем размышляющим о своей ответственности перед близкими.
Релиз от -
Сэмпл: http://multi-up.com/1014522
Качество видео: HDRip
Формат видео: AVI
Видео: MPEG-4 Visual at 1460 Кбит/сек; 704 x 384 (1.833) at 23.976 fps
Аудио: AC-3 at 448 Кбит/сек; 6 каналов, 48,0 КГц
Автор -
MediaInfo
Общее
Полное имя : D:\Фильмы\Азиатские\Цветы\Flowers.2010.HDRip.XviD.1400MB. rip by [Assassin's Creed].avi
Формат : AVI
Формат/Информация : Audio Video Interleave
Размер файла : 1,46 Гбайт
Продолжительность : 1 ч. 49 м.
Общий поток : 1918 Кбит/сек
Программа кодирования : VirtualDubMod 1.5.10.3 | www.virtualdub-fr.org || (build 2550/release)
Библиотека кодирования : VirtualDubMod build 2550/release
Видео
Идентификатор : 0
Формат : MPEG-4 Visual
Профиль формата : Advanced Simple@L5
Параметр BVOP формата : 1
Параметр QPel формата : Нет
Параметр GMC формата : Без точки перехода
Параметр матрицы формата : Default (MPEG)
Идентификатор кодека : XVID
Идентификатор кодека/Подсказка : XviD
Продолжительность : 1 ч. 49 м.
Битрейт : 1460 Кбит/сек
Ширина : 704 пикселя
Высота : 384 пикселя
Соотношение сторон : 1,85:1
Частота кадров : 23,976 кадра/сек
Цветовое пространство : YUV
Субдискретизация насыщенности : 4:2:0
Битовая глубина : 8 бит
Тип развёртки : Прогрессивная
Метод сжатия : С потерями
Бит/(Пиксели*Кадры) : 0.225
Размер потока : 1,11 Гбайт (76%)
Библиотека кодирования : XviD 1.2.1 (UTC 2008-12-04)
Аудио
Идентификатор : 1
Формат : AC-3
Формат/Информация : Audio Coding 3
Расширение режима : CM (complete main)
Параметр Endianness формата : Big
Идентификатор кодека : 2000
Продолжительность : 1 ч. 49 м.
Вид битрейта : Постоянный
Битрейт : 448 Кбит/сек
Каналы : 6 каналов
Расположение каналов : Front: L C R, Side: L R, LFE
Частота : 48,0 КГц
Битовая глубина : 16 бит
Метод сжатия : С потерями
Размер потока : 350 Мбайт (23%)
Выравнивание : Разделение по промежуткам
Продолжительность промежутка : 42 мс. (1,00 видеокадр)
Время предзагрузки промежутка : 500 мс.
Скриншот c названием фильма Скриншоты
Скачать

Скачать торрент! Цветы / Flowers (Норихиро Коидзуми / Norihiro Koizumi) [2010, Япония, драма, HDRip] original Jap + Sub (rus) [ЮГТ]

Как скачивать? · Что такое торрент? · Рейтинг и ограничения

Сайт не распространяет и не хранит электронные версии произведений, а лишь предоставляет доступ к создаваемому пользователями каталогу ссылок на торрент-файлы, которые содержат только списки хеш-сумм

[Профиль] [ЛС]
Показать сообщения:    
Ответить на тему

Текущее время: Сегодня 17:54

Часовой пояс: GMT + 4



Вы не можете начинать темы
Вы не можете отвечать на сообщения
Вы не можете редактировать свои сообщения
Вы не можете удалять свои сообщения
Вы не можете голосовать в опросах
Вы не можете прикреплять файлы к сообщениям
Вы не можете скачивать файлы