Измученные походом / Bushwhacked (Грег Биман / Greg Beeman) [1995, США, Комедия, Приключения, Семейный, HDTVRip 720p] MVO + AVO (Санаев) + Original Eng

Ответить на тему
 
Автор Сообщение

user ®

Стаж: 7 лет 7 месяцев

Сообщений: 20008

Пост Пост: #1 от 23-Ноя-2014 22:30

[Цитировать]

Измученные походом / Bushwhacked
Страна: США
Студия: Twentieth Century Fox Film Corporation
Жанр: Комедия, Приключения, Семейный
Год выпуска: 1995
Продолжительность: 01:27:31
Перевод 1: Профессиональный (многоголосый закадровый)
Перевод 2: Авторский (одноголосый закадровый) - П.Санаев
Cубтитры: нет
Оригинальная аудиодорожка: английский
Режиссер: Грег Биман / Greg Beeman
В ролях: Дэниел Стерн, Джон Полито, Брэд Салливан, Энн Дауд, Энтони Хилд, Том Вуд, Блейк Бэшофф, Кори Кэрриэр, Майкл Галеота, Макс Голдблатт, Ари Гринберг, Жанна Майклс (Daniel Stern, Jon Polito, Brad Sullivan, Ann Dowd, Anthony Heald, Tom Wood, Blake Bashoff, Corey Carrier, Michael Galeota, Max Goldblatt, Ari Greenberg, Janna Michaels)
Описание: Макс Грабельски, работающий курьером, однажды узнает, что хозяин ловко использовал его для своих темных «делишек». Но хуже всего другое — теперь хозяин мертв. Опасаясь, что в убийстве заподозрят его, Макс решает скрыться. А полиция уже идет по следу. Но тут фортуна улыбнулась Максу - совершенно случайно его принимают за руководителя группы бойскаутов и в этом качестве он отправляется в путешествие по горам. Правда, парень понятия не имеет, как обращаться со своими новыми подопечными…
Доп. информация: Автор рипа - K&F. Добавлены две русские дорожки. Многоголосый перевод взят из [url=http://***/forum/viewtopic.php?t=4654229]раздачи Sergunka172[/url]. Авторский перевод П.Санаева взят из [url=http://***/forum/viewtopic.php?t=561039]раздачи _int_[/url]. Большое спасибо всем предоставившим материалы!
На протяжении всего фильма присутствует лого телеканала. В паре фрагментов есть незначительные артефакты. Несколько раз появляется рекламный "подвал".
Сэмпл
Тип релиза: HDTVRip 720p
Контейнер: MKV
Видео: 1280x544p (2,35:1), 23,976 fps, x264, 5891 kbps
Аудио 1: Russian - Многоголосый (Dolby AC3, 2 ch) 192 Kbps / 48 000 Hz
Аудио 2: Russian - Санаев (Dolby AC3, 2 ch) 192 Kbps / 48 000 Hz
Аудио 3: English (Dolby AC3, 2 ch) 192 Kbps / 48 000 Hz
MediaInfo
Уникальный идентификатор : 229149278376086345720365946466465978709 (0xAC648BB2BA5F5CBB89BFF71B79639955)
Полное имя : Bushwhacked.(1995).HDTVRip.720p.x264.RUS.ENG.AC3.mkv
Формат : Matroska
Версия формата : Version 4 / Version 2
Размер файла : 3,95 Гбайт
Продолжительность : 1 ч. 27 м.
Общий поток : 6469 Кбит/сек
Название фильма : Bushwhacked (1995) HDTVRip 720p
Дата кодирования : UTC 2014-11-22 14:12:12
Программа кодирования : mkvmerge v7.2.0 ('On Every Street') 32bit built on Sep 13 2014 15:42:11
Библиотека кодирования : libebml v1.3.0 + libmatroska v1.4.1
DURATION : 01:27:30.016000000
NUMBER_OF_FRAMES : 164063
NUMBER_OF_BYTES : 126000384
_STATISTICS_WRITING_APP : mkvmerge v7.2.0 ('On Every Street') 32bit built on Sep 13 2014 15:42:11
_STATISTICS_WRITING_DATE_UTC : 2014-11-22 14:12:12
_STATISTICS_TAGS : BPS DURATION NUMBER_OF_FRAMES NUMBER_OF_BYTES
Видео
Идентификатор : 1
Формат : AVC
Формат/Информация : Advanced Video Codec
Профиль формата : High@L4.1
Параметр CABAC формата : Да
Параметр ReFrames формата : 9 кадров
Идентификатор кодека : V_MPEG4/ISO/AVC
Продолжительность : 1 ч. 27 м.
Битрейт : 5891 Кбит/сек
Ширина : 1280 пикселей
Высота : 544 пикселя
Соотношение сторон : 2,35:1
Режим частоты кадров : Постоянный
Частота кадров : 23,976 кадра/сек
Цветовое пространство : YUV
Субдискретизация насыщенности : 4:2:0
Битовая глубина : 8 бит
Тип развёртки : Прогрессивная
Бит/(Пиксели*Кадры) : 0.353
Размер потока : 3,52 Гбайт (89%)
Библиотека кодирования : x264 core 142 r2431 ac76440
Настройки программы : cabac=1 / ref=9 / deblock=1:-3:-3 / analyse=0x3:0x113 / me=umh / subme=9 / psy=1 / psy_rd=1.05:0.00 / mixed_ref=1 / me_range=32 / chroma_me=1 / trellis=2 / 8x8dct=1 / cqm=0 / deadzone=21,11 / fast_pskip=0 / chroma_qp_offset=-2 / threads=6 / lookahead_threads=1 / sliced_threads=0 / nr=0 / decimate=1 / interlaced=0 / bluray_compat=0 / constrained_intra=0 / bframes=6 / b_pyramid=2 / b_adapt=2 / b_bias=0 / direct=3 / weightb=1 / open_gop=0 / weightp=2 / keyint=240 / keyint_min=23 / scenecut=40 / intra_refresh=0 / rc_lookahead=50 / rc=2pass / mbtree=0 / bitrate=5891 / ratetol=1.0 / qcomp=0.60 / qpmin=10 / qpmax=51 / qpstep=4 / cplxblur=20.0 / qblur=0.5 / vbv_maxrate=62500 / vbv_bufsize=78125 / nal_hrd=none / filler=0 / ip_ratio=1.40 / pb_ratio=1.30 / aq=1:1.00
Язык : English
Default : Да
Forced : Нет
DURATION : 01:27:30.954000000
NUMBER_OF_FRAMES : 125897
NUMBER_OF_BYTES : 3866635058
_STATISTICS_WRITING_APP : mkvmerge v7.2.0 ('On Every Street') 32bit built on Sep 13 2014 15:42:11
_STATISTICS_WRITING_DATE_UTC : 2014-11-22 14:12:12
_STATISTICS_TAGS : BPS DURATION NUMBER_OF_FRAMES NUMBER_OF_BYTES
Аудио #1
Идентификатор : 2
Формат : AC-3
Формат/Информация : Audio Coding 3
Расширение режима : CM (complete main)
Параметр Endianness формата : Big
Идентификатор кодека : A_AC3
Продолжительность : 1 ч. 27 м.
Вид битрейта : Постоянный
Битрейт : 192 Кбит/сек
Каналы : 2 канала
Расположение каналов : Front: L R
Частота : 48,0 КГц
Битовая глубина : 16 бит
Метод сжатия : С потерями
Размер потока : 120 Мбайт (3%)
Заголовок : Многоголосый
Язык : Russian
Default : Да
Forced : Нет
Аудио #2
Идентификатор : 3
Формат : AC-3
Формат/Информация : Audio Coding 3
Расширение режима : CM (complete main)
Параметр Endianness формата : Big
Идентификатор кодека : A_AC3
Продолжительность : 1 ч. 27 м.
Вид битрейта : Постоянный
Битрейт : 192 Кбит/сек
Каналы : 2 канала
Расположение каналов : Front: L R
Частота : 48,0 КГц
Битовая глубина : 16 бит
Метод сжатия : С потерями
Размер потока : 120 Мбайт (3%)
Заголовок : Санаев
Язык : Russian
Default : Нет
Forced : Нет
Аудио #3
Идентификатор : 4
Формат : AC-3
Формат/Информация : Audio Coding 3
Расширение режима : CM (complete main)
Параметр Endianness формата : Big
Идентификатор кодека : A_AC3
Продолжительность : 1 ч. 27 м.
Вид битрейта : Постоянный
Битрейт : 192 Кбит/сек
Каналы : 2 канала
Расположение каналов : Front: L R
Частота : 48,0 КГц
Битовая глубина : 16 бит
Метод сжатия : С потерями
Размер потока : 120 Мбайт (3%)
Заголовок : Original
Язык : English
Default : Нет
Forced : Нет
Скриншоты
Скачать

Скачать торрент!

Как скачивать? · Что такое торрент? · Рейтинг и ограничения

Сайт не распространяет и не хранит электронные версии произведений, а лишь предоставляет доступ к создаваемому пользователями каталогу ссылок на торрент-файлы, которые содержат только списки хеш-сумм

[Профиль] [ЛС]
Показать сообщения:    
Ответить на тему

Текущее время: Сегодня 22:30

Часовой пояс: GMT + 4



Вы не можете начинать темы
Вы не можете отвечать на сообщения
Вы не можете редактировать свои сообщения
Вы не можете удалять свои сообщения
Вы не можете голосовать в опросах
Вы не можете прикреплять файлы к сообщениям
Вы не можете скачивать файлы