Попал под раздачу / Catch Hell (Райан Филипп / Ryan Philippe) [2014, США, триллер, ЛГБТ, WEB-DLRip] VO (den904)

Ответить на тему
 
Автор Сообщение

user ®

Стаж: 7 лет 7 месяцев

Сообщений: 20008

Пост Пост: #1 от 23-Ноя-2014 22:30

[Цитировать]

Попал под раздачу / Catch Hell
Страна: США
Жанр: триллер, ЛГБТ
Год выпуска: 2014
Продолжительность: 01:20:57
Перевод: одноголосый закадровый den904
Оригинальная аудиодорожка: нет
Режиссер: Райан Филипп / Ryan Philippe
В ролях: Райан Филипп, Тиг Нотаро, Джеймс ДюМонт, Джойфул Дрейк, Стивен Луис Граш, Хаким Коллендер, Рамона Тайлер, Расс Руссо, Йен Барфорд, Хайди Брук Майерс
Описание: Голливудский актер Ригон Пирс похищен бандитами по пути на работу в Шривпорте, штат Луизиана. Похитители пытают и шантажируют его, взламывают его аккаунт в Твиттере и угрожают выложить в сеть компрометирующие материалы…

Доп. информация:
Перевод: Antonio
Озвучка: den904
Сэмпл: http://multi-up.com/1011162
Качество видео: WEB-DLRip
Формат видео: AVI
Видео: DivX5 720x384 23.98fps 1696Kbps
Аудио: Dolby AC3 48000Hz 6 Audio Channel 384Kbps
MediaInfo
D:\TORRENTS\Catch.Hell.2014.WEB-DLRip.avi
General
Complete name : D:\TORRENTS\Catch.Hell.2014.WEB-DLRip.avi
Format : AVI
Format/Info : Audio Video Interleave
File size : 1.42 GiB
Duration : 1h 37mn
Overall bit rate : 2 090 Kbps
Video #0
ID : 0
Format : MPEG-4 Visual
Format profile : Advanced Simple@L5
Format settings, BVOP : 2
Format settings, QPel : No
Format settings, GMC : No warppoints
Format settings, Matrix : Default (H.263)
Codec ID : DX50
Codec ID/Hint : DivX 5
Duration : 1h 37mn
Bit rate : 1 696 Kbps
Width : 720 pixels
Height : 384 pixels
Display aspect ratio : 1.85:1
Frame rate : 23.976 fps
Color space : YUV
Chroma subsampling : 4:2:0
Bit depth : 8 bits
Scan type : Progressive
Compression mode : Lossy
Bits/(Pixel*Frame) : 0.256
Stream size : 1.15 GiB (81%)
Writing library : XviD 64
Audio #1
ID : 1
Format : AC-3
Format/Info : Audio Coding 3
Mode extension : CM (complete main)
Format settings, Endianness : Big
Codec ID : 2000
Duration : 1h 37mn
Source duration : 1h 37mn
Bit rate mode : Constant
Bit rate : 384 Kbps
Channel(s) : 6 channels
Channel positions : Front: L C R, Side: L R, LFE
Sampling rate : 48.0 KHz
Bit depth : 16 bits
Compression mode : Lossy
Stream size : 267 MiB (18%)
Alignment : Aligned on interleaves
Interleave, duration : 42 ms (1.00 video frame)
Скриншот c названием фильма Скриншоты
Скачать

Скачать торрент!

Как скачивать? · Что такое торрент? · Рейтинг и ограничения

Сайт не распространяет и не хранит электронные версии произведений, а лишь предоставляет доступ к создаваемому пользователями каталогу ссылок на торрент-файлы, которые содержат только списки хеш-сумм

[Профиль] [ЛС]
Показать сообщения:    
Ответить на тему

Текущее время: Сегодня 02:13

Часовой пояс: GMT + 4



Вы не можете начинать темы
Вы не можете отвечать на сообщения
Вы не можете редактировать свои сообщения
Вы не можете удалять свои сообщения
Вы не можете голосовать в опросах
Вы не можете прикреплять файлы к сообщениям
Вы не можете скачивать файлы